<?xml version="1.0" standalone="no"?>
<!DOCTYPE svg PUBLIC "-//W3C//DTD SVG 1.1//EN" "http://www.w3.org/Graphics/SVG/1.1/DTD/svg11.dtd" >
<svg xmlns="http://www.w3.org/2000/svg">
<metadata>Generated by IcoMoon</metadata>
<defs>
<font id="icomoon" horiz-adv-x="1024">
<font-face units-per-em="1024" ascent="960" descent="-64" />
<missing-glyph horiz-adv-x="1024" />
<glyph unicode="&#x20;" horiz-adv-x="512" d="" />
<glyph unicode="&#xe900;" glyph-name="Gizmo" horiz-adv-x="1019" d="M318.731 43.52c-140.22 67.145-238.807 201.346-254.603 359.919l-0.15 1.865h-63.978c22.723-263.656 242.246-469.089 509.796-469.304h0.022l28.138 1.291-162.326 162.549zM356.708 321.736c-0.166-0.001-0.363-0.002-0.56-0.002-7.753 0-15.217 1.239-22.204 3.529l0.504-0.143c-6.659 2.243-12.372 5.745-17.115 10.258l0.019-0.018c-4.764 4.259-8.533 9.529-10.983 15.479l-0.103 0.281c-2.425 5.73-3.834 12.394-3.834 19.386 0 0.244 0.002 0.487 0.005 0.73v-0.037h-55.385c-0.016-0.624-0.025-1.359-0.025-2.095 0-14.005 3.297-27.239 9.158-38.969l-0.229 0.505c6.102-11.603 14.106-21.384 23.703-29.3l0.161-0.129c9.958-7.577 21.612-13.564 34.231-17.303l0.763-0.194c11.979-4.067 25.778-6.414 40.124-6.414 0.294 0 0.588 0.001 0.881 0.003h-0.045c0.43-0.005 0.938-0.007 1.447-0.007 15.168 0 29.787 2.347 43.516 6.697l-1.019-0.279c13.682 4.152 25.554 10.567 35.81 18.895l-0.192-0.151c9.946 8.218 17.892 18.488 23.247 30.192l0.216 0.528c5.376 11.855 8.509 25.707 8.509 40.291 0 0.376-0.002 0.752-0.006 1.127v-0.057c0.003 0.277 0.005 0.605 0.005 0.933 0 8.153-1.090 16.052-3.133 23.558l0.145-0.627c-2.205 8.278-5.58 15.532-9.998 22.018l0.159-0.247c-4.765 7.115-10.428 13.174-16.922 18.213l-0.174 0.13c-7.433 5.608-16.065 10.153-25.38 13.182l-0.621 0.175c8.521 3.812 15.858 8.526 22.374 14.164l-0.113-0.096c5.993 5.182 11.194 11.035 15.562 17.497l0.199 0.312c3.844 5.645 7.037 12.154 9.248 19.102l0.146 0.533c1.894 5.962 2.985 12.819 2.985 19.931 0 0.193-0.001 0.386-0.002 0.579v-0.030c0.011 0.569 0.018 1.241 0.018 1.913 0 14.080-2.821 27.5-7.928 39.728l0.252-0.681c-4.961 11.756-12.372 21.625-21.647 29.328l-0.125 0.101c-9.154 8.191-20.152 14.53-32.28 18.309l-0.622 0.167c-12.887 3.844-27.695 6.056-43.020 6.056-0.215 0-0.43 0-0.644-0.001h0.033c-0.368 0.004-0.803 0.006-1.238 0.006-14.787 0-28.978-2.546-42.161-7.224l0.881 0.273c-12.955-4.626-24.14-11.136-33.868-19.324l0.165 0.135c-8.848-7.983-16.145-17.484-21.52-28.123l-0.251-0.549c-4.839-10.357-7.663-22.488-7.663-35.279 0-0.338 0.002-0.676 0.006-1.014v0.051h55.296c-0.006 0.276-0.009 0.6-0.009 0.926 0 6.609 1.413 12.887 3.953 18.55l-0.115-0.287c2.511 5.749 6.117 10.597 10.59 14.472l0.050 0.043c4.628 3.984 10.073 7.177 16.030 9.285l0.354 0.109c6.039 2.145 13.004 3.384 20.258 3.384 0.078 0 0.156 0 0.234 0h-0.012c1.226 0.109 2.653 0.171 4.094 0.171 13.113 0 25.022-5.154 33.813-13.546l-0.019 0.018c7.705-8.951 12.397-20.687 12.397-33.518 0-1.177-0.039-2.345-0.117-3.503l0.008 0.157c0-0.050 0-0.108 0-0.167 0-7.412-1.239-14.534-3.521-21.172l0.137 0.458c-2.227-6.284-5.885-11.591-10.598-15.724l-0.042-0.036c-4.937-4.33-10.75-7.807-17.121-10.121l-0.376-0.119c-6.91-2.435-14.879-3.843-23.176-3.843-0.492 0-0.983 0.005-1.473 0.015l0.073-0.001h-32.723v-43.943h32.768c0.538 0.011 1.171 0.017 1.807 0.017 8.454 0 16.653-1.094 24.461-3.149l-0.668 0.149c7.386-2.010 13.809-5.401 19.276-9.909l-0.087 0.070c5.155-4.688 9.307-10.379 12.161-16.777l0.127-0.319c2.62-6.519 4.141-14.077 4.141-21.989 0-0.816-0.016-1.628-0.048-2.436l0.004 0.116c0.072-1.019 0.114-2.208 0.114-3.407 0-14.171-5.762-26.996-15.071-36.26l-0.002-0.002c-9.638-8.68-22.461-13.989-36.523-13.989-1.389 0-2.766 0.052-4.129 0.154l0.182-0.011zM721.519 574.353c-13.436 13.845-29.617 24.941-47.675 32.422l-0.943 0.346c-17.685 7.308-38.22 11.552-59.746 11.552-0.909 0-1.815-0.008-2.72-0.023l0.136 0.002h-100.753v-341.304h98.304c0.668-0.009 1.457-0.015 2.247-0.015 22.36 0 43.73 4.237 63.352 11.953l-1.175-0.407c19.33 7.589 35.812 18.608 49.447 32.44l0.016 0.016c13.561 14.105 24.301 31.032 31.243 49.802l0.323 0.998c7.030 19.319 11.095 41.62 11.095 64.87 0 0.673-0.003 1.344-0.010 2.015l0.001-0.103v17.185c0.006 0.569 0.009 1.24 0.009 1.913 0 23.25-4.065 45.551-11.524 66.23l0.429-1.36c-7.493 19.897-18.366 36.938-32.063 51.255l0.052-0.055zM704.868 439.496c0.003-0.422 0.005-0.92 0.005-1.419 0-16.632-2.179-32.755-6.266-48.1l0.295 1.302c-3.939-13.898-10.236-25.995-18.509-36.458l0.166 0.218c-8.063-9.712-18.22-17.399-29.803-22.418l-0.516-0.199c-11.97-4.883-25.86-7.718-40.411-7.718-0.647 0-1.293 0.006-1.937 0.017l0.097-0.001h-38.823v246.161h41.361c1.69 0.12 3.662 0.189 5.651 0.189 25.679 0 48.685-11.442 64.199-29.505l0.094-0.113c15.381-21.080 24.609-47.504 24.609-76.082 0-3.104-0.109-6.182-0.323-9.232l0.023 0.411v-17.096zM509.818 960l-28.138-1.291 162.593-162.549 56.721 56.721c140.106-67.162 238.552-201.39 254.117-359.942l0.146-1.842h64.022c-22.445 263.516-241.878 468.903-509.282 468.903-0.063 0-0.127 0-0.19 0h0.010z" />
<glyph unicode="&#xe901;" glyph-name="Scale" d="M984.251 960h-321.512c-22.009-0.036-39.841-17.868-39.877-39.873v-0.58c0.036-22.009 17.868-39.841 39.873-39.877h222.56l-804.965-804.901v222.556c-0.036 22.009-17.868 39.841-39.873 39.877h-0.58c-22.009-0.036-39.841-17.868-39.877-39.873v-321.452c0.036-22.009 17.868-39.841 39.873-39.877h321.452c22.009 0.036 39.841 17.868 39.877 39.873v0.58c-0.036 22.009-17.868 39.841-39.873 39.877h-222.496l804.965 804.901v-222.556c0.036-22.009 17.868-39.841 39.873-39.877h0.58c22.009 0.036 39.841 17.868 39.877 39.873v321.516c0 0.019 0 0.042 0 0.064 0 21.953-17.796 39.749-39.749 39.749-0.045 0-0.090 0-0.135 0h0.007z" />
<glyph unicode="&#xe902;" glyph-name="Interactivity-show" horiz-adv-x="2282" d="M2129.937 810.394c-95.67 92.556-226.194 149.597-370.041 149.597s-274.372-57.041-370.188-149.739l-153.645-147.5c-3.648-3.557-5.91-8.521-5.91-14.012s2.262-10.455 5.906-14.008l0.004-0.004 95.437-93.984c3.573-3.439 8.438-5.558 13.799-5.558s10.226 2.119 13.805 5.564l-0.006-0.006 152.511 148.153c64.040 61.805 151.333 99.885 247.52 99.885s183.48-38.080 247.626-99.986l-0.106 0.102c62.849-60.902 101.859-146.088 101.859-240.386s-39.010-179.484-101.771-240.301l-0.088-0.084c-64.040-61.805-151.333-99.885-247.52-99.885s-183.48 38.080-247.626 99.986l0.106-0.102-618.074 602.268c-95.67 92.556-226.194 149.597-370.041 149.597s-274.372-57.041-370.188-149.739l0.147 0.141c-94.695-91.758-153.471-220.105-153.471-362.181s58.776-270.423 153.339-362.054l0.132-0.127c95.67-92.556 226.194-149.597 370.041-149.597s274.372 57.041 370.188 149.739l-0.147-0.141 152.511 147.641c3.648 3.557 5.91 8.521 5.91 14.012s-2.262 10.455-5.906 14.008l-0.004 0.004-95.437 93.044c-3.573 3.439-8.438 5.558-13.799 5.558s-10.226-2.119-13.805-5.564l0.006 0.006-152.767-147.128c-64.040-61.805-151.333-99.885-247.52-99.885s-183.48 38.080-247.626 99.986l0.106-0.102c-62.849 60.902-101.859 146.088-101.859 240.386s39.010 179.484 101.771 240.301l0.088 0.084c64.040 61.805 151.333 99.885 247.52 99.885s183.48-38.080 247.626-99.986l-0.106 0.102 617.561-602.78c95.67-92.556 226.194-149.597 370.041-149.597s274.372 57.041 370.188 149.739l-0.147-0.141c95.026 91.964 154.015 220.664 154.015 363.142 0 141.766-58.402 269.892-152.459 361.631l-0.104 0.101z" />
<glyph unicode="&#xe903;" glyph-name="move" d="M1015.61 466.608l-122.422 122.422c-10.873 10.881-29.921 10.881-40.777 0l-15.477-15.468c-11.239-11.239-11.239-29.271 0-40.502l45.522-45.247h-330.485v329.836l45.389-46.063c10.873-10.864 29.588-10.864 40.435 0l15.318 15.468c11.247 11.247 11.147 29.546-0.092 40.785l-122.613 122.913c-5.411 5.395-12.671 8.708-20.405 8.708h-0.841c-7.726 0-14.96-3.305-20.363-8.708l-120.066-120.241c-5.436-5.428-8.433-12.746-8.433-20.472 0-7.709 2.997-15.002 8.433-20.43l15.468-15.493c10.873-10.864 30.412-10.881 41.268-0.008l46.554 46.063v-332.358h-330.885l46.080 45.805c5.428 5.428 8.425 12.546 8.425 20.255s-2.997 14.902-8.433 20.313l-15.477 15.443c-10.864 10.856-29.912 10.823-40.76-0.017l-122.58-122.58c-5.561-5.561-8.533-12.996-8.392-20.646-0.142-7.942 2.822-15.377 8.383-20.93l120.049-120.074c10.873-10.864 29.929-10.864 40.785 0l15.485 15.485c5.42 5.411 8.417 12.663 8.417 20.372 0 7.734-2.997 15.052-8.417 20.472l-46.080 46.147h333.39v-333.074l-48.569 48.053c-10.848 10.864-30.154 10.864-41.002 0l-15.61-15.485c-5.42-5.411-8.475-12.663-8.475-20.38 0-7.709 2.964-14.952 8.383-20.38l121.648-121.664c5.403-5.395 12.629-8.383 20.605-8.383 0.050 0.033 0.5 0 0.566 0 7.726 0 14.969 2.98 20.38 8.383l122.439 122.447c5.411 5.42 8.417 12.671 8.417 20.38 0 7.726-2.997 14.969-8.417 20.388l-15.485 15.485c-10.856 10.864-29.23 10.864-40.094 0l-44.831-45.514v329.752h333.807l-48.070-48.145c-5.436-5.428-8.425-12.721-8.425-20.438s2.98-14.969 8.425-20.397l15.485-15.493c10.848-10.873 29.912-10.873 40.76 0l121.656 121.656c5.561 5.545 8.525 12.996 8.383 20.638 0.15 7.942-2.822 15.368-8.383 20.921z" />
<glyph unicode="&#xe904;" glyph-name="Interactivity-preset" d="M677.996-32.746c12.582-12.477 29.841-20.899 47.517-22.355 17.884-1.455 36.287 2.911 51.156 12.997 4.055 2.704 7.902 5.927 11.333 9.358l0.104 0.105 213.045 213.044c30.465 30.465 30.465 79.853 0 110.319s-79.854 30.465-110.319 0l-79.956-79.957v662.322c0 43.046-34.937 77.981-77.981 77.981-43.046 0-77.981-34.936-77.981-77.981v-662.322l-82.036 82.036c-30.465 30.465-79.853 30.465-110.318 0-30.466-30.466-30.466-79.854 0-110.319l215.229-215.229c0.104 0.105 0.104 0 0.208 0zM77.955 579.98c19.963 0 39.926 7.59 55.107 22.875l82.036 82.036v-662.322c0-43.046 34.936-77.981 77.981-77.981s77.981 34.936 77.981 77.981v662.322l79.956-79.957c15.181-15.18 35.144-22.875 55.107-22.875s39.926 7.59 55.107 22.875c30.465 30.465 30.465 79.853 0 110.318-5.614 5.615-11.332 11.333-16.948 16.948-13.829 13.829-27.553 27.761-41.486 41.486-17.883 17.78-35.664 35.56-53.442 53.443-17.468 17.676-35.56 34.832-52.923 52.715-16.844 17.26-33.896 34.208-51.883 50.428-18.716 16.844-43.15 25.162-68.312 19.235-6.446-1.456-13.309-3.951-19.131-7.174-17.364-9.774-31.193-25.89-45.229-39.823-17.156-16.948-34-34.208-51.052-51.364-20.275-20.379-40.758-40.654-61.137-60.929-17.052-17.26-34.312-34.52-51.468-51.78-8.318-8.318-16.636-16.532-24.954-24.85-0.104-0.104-0.312-0.312-0.416-0.416-30.465-30.465-30.465-79.853 0-110.318 15.179-15.284 35.143-22.875 55.106-22.875z" />
<glyph unicode="&#xe905;" glyph-name="Home" d="M1006.802 502.232l-86.506 78.822v261.366c0 16.63-13.482 30.114-30.114 30.114h-208.23c-16.63 0-30.114-13.482-30.114-30.114v-16.748l-104.472 95.194c-20.166 18.378-50.576 18.376-70.734 0.002l-459.436-418.638c-16.152-14.72-21.49-37.4-13.598-57.778 7.894-20.378 27.114-33.544 48.968-33.544h73.378v-419.442c0-16.63 13.482-30.114 30.114-30.114h251.826c16.63 0 30.114 13.482 30.114 30.114v254.672h148.002v-254.674c0-16.63 13.482-30.114 30.114-30.114h251.816c16.63 0 30.114 13.482 30.112 30.114v419.442h73.394c21.852 0 41.074 13.168 48.968 33.544 7.89 20.38 2.554 43.060-13.602 57.782zM867.93 471.134c-16.63 0-30.114-13.482-30.114-30.114v-419.442h-191.586v254.674c0 16.63-13.484 30.114-30.114 30.114h-208.232c-16.63 0-30.114-13.482-30.114-30.114v-254.674h-191.6v419.442c0 16.63-13.482 30.114-30.114 30.114h-83.566l439.512 400.48 149.672-136.382c8.816-8.032 21.542-10.102 32.448-5.288 10.908 4.82 17.946 15.624 17.946 27.548v54.814h148.004v-244.552c0-8.474 3.568-16.552 9.832-22.26l81.606-74.36h-83.58z" />
<glyph unicode="&#xe906;" glyph-name="Interactivity-rotation" d="M961.94 207.953c-0.002 16.97-12.602 30.008-29.568 30.008h-90.31c-16.966 0-30.71-13.742-30.71-30.71s13.742-30.71 30.71-30.71h28.282c-84.36-111.242-217.050-179.122-358.343-179.122-247.78 0-450.581 202.8-450.581 450.581 0 38.094 5.978 75.892 15.352 112.376 4.218 16.41-5.656 33.17-22.094 37.39-16.322 4.278-33.17-5.656-37.39-22.094-10.666-41.464-17.288-84.42-17.288-127.672 0-281.655 230.346-511.999 511.999-511.999 151.192 0 292.197 69.586 388.373 182.988v-1.52c0-16.966 13.742-30.71 30.71-30.71s30.71 13.742 30.71 30.71l0.146 86.236c0.208 1.406 0.002 2.812 0.002 4.248zM512.001 960c-151.194 0-292.493-69.586-388.667-182.988v1.052c0 16.966-13.742 30.71-30.71 30.71s-30.71-13.742-30.71-30.71v-90.398c0.064-18.672 15.946-32.062 34.254-29.392h86.060c16.732-2.374 30.71 13.742 30.71 30.71s-13.742 30.71-30.71 30.71h-28.57c84.358 111.244 217.048 178.892 358.343 178.892 247.782 0 450.581-202.8 450.581-450.581 0-38.094-5.978-75.892-15.352-112.376-4.218-16.41 5.656-33.17 22.094-37.39 16.056-4.244 33.096 5.45 37.39 22.094 10.666 41.464 17.288 84.42 17.288 127.67-0.004 281.651-230.348 511.997-512.001 511.997zM525.949 744.63c-8.734 4.57-19.166 4.57-27.898 0l-225.122-118.194 239.072-143.448 239.072 143.448-225.124 118.194zM542.007 431.013v-269.689l225.95 141.22c8.762 5.48 14.094 15.090 14.094 25.434v247.060l-240.044-144.024zM241.95 575.037v-247.060c0-10.344 5.334-19.956 14.094-25.434l225.95-141.218v269.687l-240.044 144.024z" />
<glyph unicode="&#xe907;" d="M1019.34 961.458l0.061-72.266-662.096-0.555-0.061 72.266 662.096 0.555z" />
<glyph unicode="&#xe908;" d="M1019.603 299.265l-72.266-0.061-0.555 662.096 72.266 0.061 0.555-662.096z" />
<glyph unicode="&#xe909;" glyph-name="Scroll" horiz-adv-x="714" d="M357.009 59.318l270.481 270.963c9.222 9.298 22.003 15.054 36.128 15.054s26.906-5.756 36.125-15.050l0.003-0.003c9.139-9.295 14.781-22.053 14.781-36.128s-5.642-26.834-14.788-36.136l0.007 0.007-306.61-307.092c-9.227-9.217-21.969-14.916-36.042-14.916-13.307 0-25.424 5.097-34.506 13.444l0.037-0.033-308.838 307.995c-8.542 9.114-13.788 21.406-13.788 34.923 0 28.234 22.888 51.122 51.122 51.122 13.518 0 25.81-5.246 34.951-13.814l-0.028 0.026zM357.009 366.651l270.481 270.963c9.222 9.298 22.003 15.054 36.128 15.054s26.906-5.756 36.125-15.050l0.003-0.003c9.139-9.295 14.781-22.053 14.781-36.128s-5.642-26.834-14.788-36.136l0.007 0.007-306.61-307.092c-9.227-9.217-21.969-14.916-36.042-14.916-13.307 0-25.424 5.097-34.506 13.444l0.037-0.033-308.838 307.995c-8.542 9.114-13.788 21.406-13.788 34.923 0 28.234 22.888 51.122 51.122 51.122 13.518 0 25.81-5.246 34.951-13.814l-0.028 0.026zM357.009 673.983l270.481 270.963c9.222 9.298 22.003 15.054 36.128 15.054s26.906-5.756 36.125-15.050l0.003-0.003c9.139-9.295 14.781-22.053 14.781-36.128s-5.642-26.834-14.788-36.136l0.007 0.007-306.61-307.092c-9.227-9.217-21.969-14.916-36.042-14.916-13.307 0-25.424 5.097-34.506 13.444l0.037-0.033-308.838 307.995c-8.542 9.114-13.788 21.406-13.788 34.923 0 28.234 22.888 51.122 51.122 51.122 13.518 0 25.81-5.246 34.951-13.814l-0.028 0.026z" />
<glyph unicode="&#xe90a;" glyph-name="X-Y-Z-axis" d="M439.15 886.856l-439.15-438.855 439.004-438.857 51.712 51.565-350.72 350.72h884.004v73.141h-884.004l350.867 350.867z" />
<glyph unicode="&#xe90b;" d="M210.889 797.015c0-10.393-9.958-18.819-22.241-18.819s-22.241 8.426-22.241 18.819c0 10.393 9.958 18.819 22.241 18.819s22.241-8.426 22.241-18.819z" />
<glyph unicode="&#xe90c;" d="M994.462 445.434c0-260.315-214.091-471.341-478.184-471.341s-478.184 211.026-478.184 471.341c0 260.315 214.091 471.341 478.184 471.341s478.184-211.026 478.184-471.341z" />
<glyph unicode="&#xe90d;" d="M875.044 809.333c-198.973 200.683-523.18 202.052-724.034 2.908s-202.223-523.351-3.080-724.034 523.351-202.223 724.034-3.080 202.223 523.351 3.080 724.206zM824.916 132.689c-174.507-173.139-456.285-171.941-629.424 2.737s-171.941 456.285 2.737 629.424 456.285 171.941 629.424-2.737 171.941-456.285-2.737-629.424zM551.863 706.681l-72.198 0.342-1.027-217.108-216.937 1.027-0.342-72.198 217.108-1.027-1.027-216.937 72.198-0.342 1.027 216.937 216.937-0.855 0.342 72.198-216.937 1.027 0.855 216.937z" />
<glyph unicode="&#xe90e;" d="M210.889 797.015c0-10.393-9.958-18.819-22.241-18.819s-22.241 8.426-22.241 18.819c0 10.393 9.958 18.819 22.241 18.819s22.241-8.426 22.241-18.819z" />
<glyph unicode="&#xe90f;" d="M994.462 445.434c0-260.315-214.091-471.341-478.184-471.341s-478.184 211.026-478.184 471.341c0 260.315 214.091 471.341 478.184 471.341s478.184-211.026 478.184-471.341z" />
<glyph unicode="&#xe910;" d="M875.044 809.333c-198.973 200.683-523.18 202.052-724.034 2.908s-202.223-523.351-3.080-724.034 523.351-202.223 724.034-3.080 202.223 523.351 3.080 724.206zM824.916 132.689c-174.507-173.139-456.285-171.941-629.424 2.737s-171.941 456.285 2.737 629.424 456.285 171.941 629.424-2.737 171.941-456.285-2.737-629.424zM551.863 706.681l-72.198 0.342-1.027-217.108-216.937 1.027-0.342-72.198 217.108-1.027-1.027-216.937 72.198-0.342 1.027 216.937 216.937-0.855 0.342 72.198-216.937 1.027 0.855 216.937z" />
<glyph unicode="&#xe911;" glyph-name="alternate" d="M643.952-66.577l380.048 218.717-380.048 218.717v-99.479l130.234-73.536h-766.11v-86.078h760.612l-124.736-73.536v-104.805zM380.048 619.468l-130.234 73.536h766.11v86.078h-760.612l124.736 73.536v104.805l-380.048-218.717 380.048-218.717v99.479z" />
<glyph unicode="&#xe912;" d="M34.743 266.409v-161.336l985.037-5.626v729.037l-122.374-144.598-172.589-222.664-222.523-105.776-161.477 72.44z" />
<glyph unicode="&#xe913;" d="M68.22 132.923v93.96l78.91 43.042v-4.22h50.075v31.508l149.38 81.442 117.732-63.437v-49.512h50.075v48.105l300.167 177.793 148.818 201.705 43.182-27.147 10.971 161.055-150.084-73.565 39.244-24.615-137.846-186.936-278.505-164.993-144.035 77.503-278.084-151.631v486.541h-66.813v-723.411h1024v66.813z" />
<glyph unicode="&#xe914;" d="M759.279 224.211h50.075v-73.284h-50.075v73.284z" />
<glyph unicode="&#xe915;" d="M759.279 339.13h50.075v-73.284h-50.075v73.284z" />
<glyph unicode="&#xe916;" d="M759.279 453.486h50.075v-73.284h-50.075v73.284z" />
<glyph unicode="&#xe917;" d="M464.316 224.211h50.075v-73.284h-50.075v73.284z" />
<glyph unicode="&#xe918;" d="M147.13 224.211h50.075v-73.284h-50.075v73.284z" />
<glyph unicode="&#xe919;" d="M39.385 252.062l128.985 58.936v-200.44l-133.626-5.486z" />
<glyph unicode="&#xe91a;" d="M496.668 349.96l-11.112-261.626 294.963 5.626v406.224z" />
<glyph unicode="&#xe91b;" glyph-name="back" d="M504.553 30.122c197.076 8.313 351.551 151.184 351.551 325.401 0 179.585-165.904 325.747-369.561 325.747-38.445 0-179.932-0.693-228.075-1.212l142.179-80.181v-106.504l-406.448 233.963 406.448 233.963v-112.219l-130.23-76.891c48.49 0.52 181.49 1.039 216.126 1.039 254.744 0 461.865-187.551 461.865-417.878 0-223.572-193.266-406.968-439.871-417.531-4.849-0.173-74.64-0.346-296.134-0.52h-8.659v92.304h8.659c125.727 0.173 283.665 0.346 292.151 0.52z" />
<glyph unicode="&#xe91c;" glyph-name="click" d="M889.729 228.413l-426.631 426.631c-6.143 6.057-15.273 7.935-23.252 4.608-7.977-3.286-13.183-11.093-13.183-19.71v-590.713c0-8.149 4.65-15.573 11.989-19.156 7.337-3.584 16.085-2.688 22.44 2.346l108.321 84.687 94.542-170.14c3.926-6.997 11.177-10.965 18.686-10.965 3.2 0 6.485 0.726 9.557 2.262l127.989 63.995c5.206 2.602 9.129 7.209 10.837 12.757 1.706 5.59 1.066 11.605-1.706 16.681l-89.081 160.285h134.389c8.617 0 16.383 5.206 19.71 13.183 3.326 7.979 1.492 17.151-4.61 23.252zM704.017 234.599c-7.551 0-14.549-4.010-18.388-10.537-3.84-6.485-3.968-14.549-0.298-21.16l95.864-172.488-89.806-44.924-96.718 174.151c-3.030 5.462-8.319 9.343-14.421 10.581-1.45 0.298-2.858 0.426-4.266 0.426-4.694 0-9.385-1.578-13.141-4.522l-93.518-73.124v495.445l353.848-353.848h-119.156zM447.996 960.001c-11.775 0-21.332-9.557-21.332-21.332v-127.989c0-11.775 9.557-21.332 21.332-21.332s21.332 9.557 21.332 21.332v127.989c-0.002 11.775-9.557 21.332-21.332 21.332zM277.343 661.359h-127.989c-11.775 0-21.332-9.557-21.332-21.332s9.557-21.332 21.332-21.332h127.989c11.775 0 21.332 9.557 21.332 21.332s-9.557 21.332-21.332 21.332zM746.637 661.359h-127.989c-11.775 0-21.332-9.557-21.332-21.332s9.557-21.332 21.332-21.332h127.989c11.775 0 21.332 9.557 21.332 21.332s-9.557 21.332-21.332 21.332zM342.405 775.781l-90.53 90.488c-8.319 8.319-21.844 8.319-30.163 0s-8.319-21.844 0-30.163l90.53-90.488c4.182-4.138 9.641-6.229 15.103-6.229s10.921 2.048 15.061 6.229c8.319 8.319 8.319 21.844 0 30.163zM342.405 534.394c-8.319 8.319-21.844 8.319-30.163 0l-90.53-90.488c-8.319-8.319-8.319-21.844 0-30.163 4.182-4.138 9.641-6.229 15.103-6.229s10.921 2.090 15.061 6.229l90.53 90.488c8.319 8.319 8.319 21.844 0 30.163zM674.281 866.271c-8.319 8.361-21.844 8.361-30.205 0l-90.53-90.488c-8.319-8.319-8.319-21.844 0-30.163 4.182-4.138 9.641-6.229 15.103-6.229s10.921 2.048 15.103 6.229l90.53 90.488c8.319 8.319 8.319 21.8 0 30.163z" />
<glyph unicode="&#xe91d;" d="M334.038 877.564c0-9.037-9.616-16.364-21.478-16.364s-21.478 7.327-21.478 16.364c0 9.037 9.616 16.364 21.478 16.364s21.478-7.327 21.478-16.364z" />
<glyph unicode="&#xe91e;" d="M996.794 455.159c0-266.050-215.676-481.726-481.726-481.726s-481.726 215.676-481.726 481.726c0 266.050 215.676 481.726 481.726 481.726s481.726-215.676 481.726-481.726z" />
<glyph unicode="&#xe91f;" d="M511.591 960.818c-282.694 0-512-229.101-512-512 0-282.694 229.101-512 512-512s511.795 229.51 511.795 512.204-229.101 511.795-511.795 511.795zM511.591 3.912c-245.875 0-445.111 199.236-445.111 445.111s199.236 445.111 445.111 445.111 445.111-199.236 445.111-445.111-199.441-445.111-445.111-445.111zM663.575 659.1l-153.416-153.416-153.416 153.416-51.139-51.139 153.416-153.416-153.416-153.416 51.139-51.139 153.416 153.416 153.416-153.416 51.139 51.139-153.416 153.416 153.416 153.416-51.139 51.139z" />
<glyph unicode="&#xe920;" glyph-name="collapse" d="M511.292 185.043l-409.883 708.216h-102.353l513.179-892.403 510.821 894.762h-97.164l-407.996-722.366z" />
<glyph unicode="&#xe921;" d="M100.063 239.446l501.563 101.691 198.212 237.855-234.407 174.082 94.797 146.505 137.887 36.195 101.691-74.114v-143.057l-77.561-148.228-480.88-567.059-237.855-27.577z" />
<glyph unicode="&#xe922;" d="M782.603 930.604l-174.082-86.179c0 0-510.181-611.872-510.181-634.279s-1.724-215.448-1.724-215.448l267.156 31.025 553.271 720.458-36.195 120.651-98.244 63.773z" />
<glyph unicode="&#xe923;" d="M902.047 633.285c42.055 48.777 93.935 167.705-9.652 271.292-36.885 36.885-78.768 55.327-124.788 54.638-83.421-1.379-146.849-67.909-149.435-70.839l-65.841-78.768-81.87 67.737-45.675-55.327 81.698-67.565-443.306-530.347 1.724-288.873 291.113 42.917 444.34 533.105 69.805-57.74 45.675 55.327-69.633 57.568 55.844 66.875zM670.914 839.943c5.515 5.515 48.605 47.054 98.072 47.571 0.345 0 0.689 0 1.034 0 25.509 0 48.95-11.031 71.529-33.61 80.664-80.664 13.789-164.775 5.86-173.91l-56.534-67.909-183.389 151.848 63.428 76.010zM318.097 44.681l-183.217-29.473v182.872l426.587 510.87 183.562-151.848-426.932-512.422z" />
<glyph unicode="&#xe924;" d="M56.32 716.8h389.12v-529.92h-389.12v529.92z" />
<glyph unicode="&#xe925;" d="M570.88 712.96h404.48v-532.48h-404.48v532.48z" />
<glyph unicode="&#xe926;" d="M541.184 741.504v-244.992h-59.776v244.992h-451.968v-586.752h452.096v276.352h59.776v-276.352h451.968v586.752h-452.096zM416.128 220.16h-321.28v456.064h321.408v-179.712h-152.704v-65.408h152.576v-210.944zM927.872 220.16h-321.28v210.944h108.928l-42.496-56.576 52.224-39.168 96.896 129.152-102.784 128.64-51.072-40.832 44.672-55.808h-106.368v179.712h321.408v-456.064z" />
<glyph unicode="&#xe927;" d="M87.006 228.843l421.016 240.259 428.627-242.162-436.065-245.276z" />
<glyph unicode="&#xe928;" d="M115.719 706.422l392.476 224.865 419.632-245.449-5.535-472.043-414.097-234.724-430.703 229.708z" />
<glyph unicode="&#xe929;" d="M954.984 701.578l-22.659-11.935 20.757 11.935-442.465 258.422-442.638-258.422v-512l442.638-253.578 442.465 253.578-6.573 5.016 8.476-5.016v512zM510.616 883.373l314.119-181.795-314.119-181.795-314.119 181.795c4.67 0 314.119 181.795 314.119 181.795zM129.73 229.708v436.411l347.503-199.092v-440.043l-280.735 162.595-66.768 40.13zM545.73 28.195v440.043l345.6 198.054v-436.411l-66.595-40.13-279.005-161.557z" />
<glyph unicode="&#xe92a;" d="M264.28 823.619h240.989v-757.97h-240.989v757.97z" />
<glyph unicode="&#xe92b;" d="M27.33 581.284h961.262v-253.105h-961.262v253.105z" />
<glyph unicode="&#xe92c;" d="M1023.327 597.44h-481.573v249.067h-304.4v-249.067h-238.027v-304.4h238.027v-243.547h304.4v243.547h481.573v304.4zM303.727 780.134h171.519v-182.694h-171.519v182.694zM475.38 531.067v-171.519h-171.654v171.519h171.654zM65.834 359.413v171.654h171.519v-171.519h-171.519zM475.38 115.866h-171.654v177.174h171.519v-177.174zM541.753 531.067h171.519v-171.519h-171.519v171.519zM956.819 359.413h-177.039v171.654h177.174v-171.654z" />
<glyph unicode="&#xe92d;" d="M134.647 101.521c0 0-80.616 185.246 377.353 185.246 463.116 0 396.221-195.538 396.221-195.538l-164.663-102.915-177.185-8.405-195.023-7.032-169.809 56.603-66.894 72.040z" />
<glyph unicode="&#xe92e;" d="M132.074 788.476l144.080 97.769 238.419 46.312 313.889-56.603 102.915-133.789-15.437-648.362-169.809-87.477-293.307-30.874-186.961 36.020-164.663 108.060-5.146 632.925z" />
<glyph unicode="&#xe92f;" d="M959.678 760.174c-3.259 111.148-188.162 200.683-447.678 200.683s-435.843-89.536-439.102-200.683v0-622.633c3.259-111.148 179.586-200.683 439.102-200.683s444.419 89.536 447.678 200.683v0 622.633zM512 899.795c213.548 0 360.887-62.263 360.887-139.106s-147.339-139.106-360.887-139.106-352.311 62.263-352.311 139.106c0 76.843 138.763 139.106 352.311 139.106zM512 4.095c-208.23 0-363.288 59.347-372.551 133.446h0.343v515.773c82.675-59.347 199.483-98.97 372.208-98.97s298.109 39.794 380.784 98.97v-515.773h0.343c-9.262-74.27-172.896-133.446-381.127-133.446z" />
<glyph unicode="&#xe930;" d="M486.491 870.901h54.48v-54.48h-54.48v54.48z" />
<glyph unicode="&#xe931;" d="M208.809 614.901l631.709-16.399-43.547-648.108-550.081 16.399z" />
<glyph unicode="&#xe932;" d="M551.903 514.87h-70.878v-447.863h70.878v447.863zM400.854 69.375l-14.030 447.499-70.696-4.555 14.030-447.499 70.696 4.555zM710.058 512.683l-70.696 3.826-11.479-447.499 70.696-3.826 11.479 447.499zM154.329 658.448l0.547-8.199h-0.182l42.636-717.528h0.364v-9.475h631.709v9.475h0.364l42.818 717.528h-0.182l0.547 8.199h-718.622zM762.716-5.876h-497.97l-35.348 593.628h568.484l-35.166-593.628zM647.926 836.282l14.212 63.772-212.817 47.191-14.212-63.772-263.835 58.67-15.305-69.056 740.486-164.532 15.305 69.056-263.835 58.67z" />
<glyph unicode="&#xe933;" d="M938.247 399.26l-9.696-439.176-734.718-4.783z" />
<glyph unicode="&#xe934;" d="M248.262-12.249l-0.646-32.192-53.782-0.259z" />
<glyph unicode="&#xe935;" d="M233.006 549.1c13.704-2.715 27.408-4.137 40.983-4.137 40.466 0 80.156 11.894 114.545 34.907 46.025 30.769 77.441 77.57 88.301 131.74 10.86 54.299-0.129 109.503-30.769 155.528s-77.57 77.57-131.869 88.43c-54.299 10.86-109.503-0.129-155.528-30.769-46.154-30.769-77.441-77.57-88.301-131.869-22.366-112.089 50.55-221.462 162.639-243.829zM131.131 780.775c7.628 38.009 29.606 70.847 61.797 92.308 24.176 16.16 51.843 24.435 80.285 24.435 9.567 0 19.134-0.905 28.701-2.844 78.475-15.643 129.671-92.308 113.899-170.913-7.628-38.009-29.606-70.847-61.797-92.308-32.321-21.461-70.977-29.218-108.986-21.59-78.475 15.773-129.542 92.438-113.899 170.913zM73.988-64.35l887.918 5.171v510.928l-887.918-516.099zM899.462-4.363l-605.822-3.491 605.822 344.67v-341.179z" />
<glyph unicode="&#xe936;" d="M104.846 411.304c0-23.162-17.995-41.939-40.191-41.939s-40.191 18.777-40.191 41.939c0 23.162 17.995 41.939 40.191 41.939s40.191-18.777 40.191-41.939z" />
<glyph unicode="&#xe937;" d="M66.752 538.867l228.216 111.137 378.496 16.775 233.633-66.752 83.528-116.904-122.321-124.243-361.895-65.005-289.376 50.152-172.472 111.312z" />
<glyph unicode="&#xe938;" d="M1023.65 494.307c-10.31 117.603-235.38 211.44-511.65 211.44-282.736 0-512-98.381-512-219.828 0-2.796 0.175-5.417 0.349-8.038-0.175 1.747-0.349 3.495-0.349 5.242v-69.548c0-121.447 229.264-219.828 512-219.828s512 98.381 512 219.828v86.324c0-1.922-0.175-3.67-0.349-5.592zM512 639.694c231.012 0 418.162-67.276 418.162-150.455s-187.151-150.455-418.162-150.455-418.162 67.276-418.162 150.455 187.151 150.455 418.162 150.455z" />
<glyph unicode="&#xe939;" glyph-name="dive" d="M575.885 150.789h-1.838v205.903h-128.843v-202.533h-1.992l-80.89 110.918-79.971 0.46 231.335-336.89 225.666 335.665-79.818 0.46-83.648-113.982zM445.817 730.504h1.838v-205.903h128.843v202.533h1.992l80.89-110.918 79.971-0.46-231.335 336.89-225.666-335.665 79.818-0.46 83.648 113.982z" />
<glyph unicode="&#xe93a;" d="M657.814 10.307l0.061-72.266-662.096-0.555-0.061 72.266 662.096 0.555z" />
<glyph unicode="&#xe93b;" d="M1019.47 299.518v72.266l-361.622-0.293-0.146 156.088h0.293v72.266l-228.062-0.146-0.293 361.622h-72.266l0.293-361.622-289.502-0.293v0.293h-72.266l0.585-662.096h72.266l-0.439 589.391 289.502 0.293 0.146-156.088h-0.293v-72.266l228.062 0.146 0.293-361.622h72.266l-0.293 361.622 361.476 0.439zM429.933 371.345l-0.146 156.088 155.503 0.146 0.146-156.088-155.503-0.146z" />
<glyph unicode="&#xe93c;" d="M34.811 555.082h589.684v-584.125h-589.684v584.125z" />
<glyph unicode="&#xe93d;" d="M390.874 933.381h589.684v-584.125h-589.684v584.125z" />
<glyph unicode="&#xe93e;" glyph-name="Mouse-move" d="M490.041 267.221l120.36 69.529c11.292 6.523 17.863 18.922 16.922 31.93-0.934 13.005-9.226 24.335-21.335 29.165l-559.335 223.111c-12.633 5.037-27.058 2.076-36.681-7.544-9.619-9.623-12.588-24.045-7.551-36.681l223.087-559.397c4.834-12.116 16.163-20.404 29.168-21.342 13.033-0.917 25.41 5.641 31.93 16.925l69.511 120.36 171.667-171.68c6.382-6.385 15.039-9.971 24.069-9.971 9.026 0 17.687 3.586 24.073 9.971l85.792 85.806c13.291 13.291 13.291 34.84 0 48.138l-171.677 171.68zM1016.929 680.386l-72.611 94.26c-11.471 14.895-32.84 17.663-47.738 6.192-14.895-11.471-17.667-32.844-6.196-47.738l30.386-39.446h-146.963v147.318l39.202-30.324c6.199-4.796 13.526-7.116 20.804-7.113 10.174 0 20.239 4.537 26.945 13.212 11.505 14.87 8.775 36.247-6.099 47.756l-94.067 72.759c-12.26 9.488-29.389 9.488-41.65 0l-94.067-72.763c-14.874-11.509-17.601-32.885-6.103-47.756 11.505-14.874 32.889-17.605 47.752-6.099l39.202 30.324v-147.322h-146.963l30.389 39.446c11.471 14.891 8.699 36.268-6.192 47.738-14.888 11.474-36.264 8.695-47.742-6.192l-72.607-94.26c-9.43-12.247-9.43-29.306 0-41.55l72.607-94.26c6.706-8.706 16.791-13.271 26.989-13.271 7.254 0 14.56 2.31 20.749 7.075 14.891 11.471 17.663 32.847 6.192 47.742l-30.389 39.446h146.963v-147.318l-39.198 30.324c-14.864 11.502-36.247 8.778-47.752-6.092-11.505-14.874-8.778-36.254 6.092-47.752l94.070-72.773c6.13-4.741 13.481-7.113 20.828-7.113s14.698 2.372 20.832 7.113l94.067 72.773c14.87 11.502 17.598 32.878 6.096 47.752-11.502 14.867-32.882 17.594-47.756 6.092l-39.198-30.324v147.325h146.963l-30.386-39.446c-11.471-14.891-8.702-36.271 6.196-47.742 6.189-4.768 13.495-7.075 20.749-7.075 10.199 0 20.287 4.565 26.989 13.271l72.614 94.26c9.43 12.243 9.43 29.303 0 41.55z" />
<glyph unicode="&#xe93f;" glyph-name="Caption-middle-H" d="M202.104 717.473h269.474v-188.632h-269.474v188.632zM552.421 717.473h269.474v-188.632h-269.474v188.632zM552.421 367.156h175.157v-188.632h-175.157v188.632zM296.422 367.156h175.157v-188.632h-175.157v188.632zM512.001 960c-14.883 0-26.947-12.064-26.947-26.947v-970.105c0-14.883 12.064-26.947 26.947-26.947s26.947 12.064 26.947 26.947v970.105c0 14.883-12.067 26.947-26.947 26.947z" />
<glyph unicode="&#xe940;" glyph-name="enter" d="M33.275 275.44l92.772-59.798 181.957 71.074 2.221-1.538-152.57-239.875 150.178-95.506 150.007 236.117 2.050-1.538 12.472-189.303 92.772-59.627-19.99 563.98-511.871-223.986zM974.324 642.087c-26.824 108.149-93.968 199.554-189.474 257.131-95.335 57.577-207.584 74.662-315.733 47.838s-199.554-93.968-257.131-189.474c-57.577-95.335-74.662-207.584-47.838-315.733l86.28 21.356c-21.015 85.084-7.688 173.414 37.587 248.418 45.276 75.175 117.204 127.968 202.288 149.153 85.084 21.015 173.414 7.688 248.418-37.587 75.175-45.276 127.968-117.204 149.153-202.288 43.396-175.806-64.24-354.175-239.875-397.571l21.356-86.28c108.149 26.824 199.554 93.968 257.131 189.474 57.577 95.335 74.662 207.414 47.838 315.562z" />
<glyph unicode="&#xe941;" glyph-name="expand" d="M819.058 436.68l-708.216-409.883v-102.353l892.403 513.179-894.762 510.821v-97.164l722.366-407.996z" />
<glyph unicode="&#xe942;" d="M35.497 837.991h950.259v-779.981h-950.259v779.981z" />
<glyph unicode="&#xe943;" d="M358.201 630.636l4.12-387.244 352.914 175.77z" />
<glyph unicode="&#xe944;" d="M0.069 592.736h72.368v205.844h217.104v72.368h-289.472v-278.212zM72.299 320.017h-72.231v-294.965h289.335v72.368h-217.104v222.597zM951.701 97.42h-217.104v-72.368h289.335v294.965h-72.368v-222.597zM734.597 870.948v-72.368h217.104v-205.844h72.368v278.212h-289.472zM332.934 695.452v-511.931l445.194 255.966-445.194 255.966zM408.048 564.723l217.104-127.983-217.104-122.49v250.473z" />
<glyph unicode="&#xe945;" glyph-name="facebook" d="M114.558 691.141h84.164v-144.949h-84.164v144.949zM259.507 836.091h98.192v-154.301h-98.192v154.301zM876.712 952.986h-720.072c-84.164 0-149.626-65.461-149.626-149.626v-720.072c0-84.164 65.461-149.626 149.626-149.626h299.251v360.037h-121.571v177.681h121.571v121.571c0 98.192 79.489 177.681 177.681 177.681h182.356v-177.681h-182.356v-121.571h182.356l-28.055-177.681h-149.626v-360.037h243.141c84.164 0 149.626 65.461 149.626 149.626v720.072c-4.675 84.164-74.812 149.626-154.301 149.626z" />
<glyph unicode="&#xe946;" glyph-name="forward" d="M730.204 29.602h8.659v-92.304h-8.659c-221.494 0.173-291.285 0.346-296.134 0.52-246.605 10.564-439.872 193.959-439.872 417.532 0 230.327 207.121 417.878 461.865 417.878 34.636 0 167.636-0.52 216.126-1.039l-130.23 76.891v112.219l406.448-233.963-406.448-233.963v106.504l142.179 80.181c-48.143 0.52-189.63 1.212-228.075 1.212-203.657 0-369.561-146.162-369.561-325.747 0-174.217 154.475-317.089 351.551-325.401 8.486-0.173 166.424-0.346 292.151-0.52z" />
<glyph unicode="&#xe947;" glyph-name="fullscreen" d="M953.196 846.744h36.387v-37.903h-36.387v37.903zM29.868 843.712h36.387v-25.774h-36.387v25.774zM736.085 869.487v-72.32h217.111v-205.892h72.32v278.211h-289.431zM73.836 318.522h-72.32v-295.041h289.431v72.32h-217.111v222.721zM1.516 591.123h72.32v206.043h217.111v72.32h-289.431v-278.363zM953.196 95.801h-217.111v-72.32h289.431v295.041h-72.32v-222.721z" />
<glyph unicode="&#xe948;" d="M165.898 411.632c-61.705 0-111.69-49.985-111.69-111.69s49.985-111.69 111.69-111.69 111.69 49.985 111.69 111.69-49.985 111.69-111.69 111.69zM424.613 161.018c-43.607-43.607-43.607-114.276 0-157.883s114.276-43.607 157.883 0 43.607 114.276 0 157.883-114.276 43.607-157.883 0zM873.959 411.632c-61.705 0-111.69-49.985-111.69-111.69s49.985-111.69 111.69-111.69 111.69 49.985 111.69 111.69-49.985 111.69-111.69 111.69z" />
<glyph unicode="&#xe949;" d="M354.979 850.12c-88.249-88.249-88.249-231.309 0-319.558s231.309-88.249 319.558 0 88.249 231.309 0 319.558-231.309 88.249-319.558 0zM160.727 409.908c-61.705 0-111.69-49.985-111.69-111.69s49.985-111.69 111.69-111.69 111.69 49.985 111.69 111.69-49.985 111.69-111.69 111.69zM419.442 159.294c-43.607-43.607-43.607-114.276 0-157.883s114.276-43.607 157.883 0 43.607 114.276 0 157.883-114.276 43.607-157.883 0zM868.788 409.908c-61.705 0-111.69-49.985-111.69-111.69s49.985-111.69 111.69-111.69 111.69 49.985 111.69 111.69-49.985 111.69-111.69 111.69z" />
<glyph unicode="&#xe94a;" d="M863.273 442.484c-24.82 0-48.261-6.205-68.945-16.891l-80.493 89.456c40.505 47.227 64.98 108.415 64.98 175.292 0 148.576-120.998 269.573-269.573 269.573s-269.573-120.998-269.573-269.573c0-68.255 25.682-130.822 67.738-178.394l-77.563-86.353c-20.683 10.859-44.125 16.891-68.945 16.891-82.561 0-149.782-67.221-149.782-149.782s67.221-149.782 149.782-149.782 149.782 67.221 149.782 149.782c0 32.059-10.169 61.878-27.405 86.181l77.735 86.526c33.266-22.062 71.702-36.885 113.069-42.401v-191.838c-65.497-16.030-114.448-75.15-114.448-145.473 0-82.561 67.221-149.782 149.782-149.782s149.782 67.221 149.782 149.782c0 70.324-48.778 129.616-114.448 145.473v192.011c42.746 5.688 82.389 21.373 116.516 44.642l79.803-88.766c-17.236-24.475-27.405-54.122-27.405-86.353 0-82.561 67.221-149.782 149.782-149.782s149.782 67.221 149.782 149.782-67.393 149.782-149.955 149.782zM509.242 889.073c109.622 0 198.733-89.111 198.733-198.733s-89.111-198.733-198.733-198.733-198.733 89.111-198.733 198.733 89.111 198.733 198.733 198.733zM160.727 213.761c-43.607 0-78.942 35.334-78.942 78.942s35.506 78.942 78.942 78.942 78.942-35.334 78.942-78.769-35.334-79.114-78.942-79.114zM588.184 85.868c0-43.607-35.334-78.942-78.942-78.942s-78.942 35.334-78.942 78.942 35.334 78.942 78.942 78.942 78.942-35.334 78.942-78.942zM863.273 213.761c-43.607 0-78.942 35.334-78.942 78.942s35.334 78.942 78.942 78.942 78.942-35.334 78.942-78.942c0-43.435-35.506-78.942-78.942-78.942z" />
<glyph unicode="&#xe94b;" d="M18.963 853.049h42.477v-37.926h-42.477v37.926z" />
<glyph unicode="&#xe94c;" d="M31.099 839.396h963.319v-785.825h-963.319v785.825z" />
<glyph unicode="&#xe94d;" d="M746.989 282.643c18.963 8.344 34.588 20.025 47.18 34.74s22.3 32.161 29.127 52.186c6.827 20.025 10.316 41.87 10.316 65.384s-3.489 45.511-10.316 65.839c-6.827 20.328-16.536 38.078-28.975 53.096s-28.217 26.852-47.18 35.347c-18.963 8.647-40.050 12.895-63.109 12.895h-129.252v-332.231h129.252c23.059 0.152 44.146 4.399 62.957 12.743zM605.905 554.344h78.127c21.087 0 39.14-5.31 54.158-16.081s26.245-25.031 33.375-42.78 10.771-37.926 10.771-60.378c0-22.452-3.641-42.477-10.771-59.923s-18.356-31.554-33.375-42.174c-15.019-10.619-33.071-15.929-54.158-15.929h-78.127v237.265zM0.759 872.164v-851.513h1024v851.513h-1024zM952.396 93.165h-879.275v706.636h879.275v-706.636zM266.088 411.895h150.035v-141.691h51.124v332.231h-51.124v-143.815h-150.035v143.663h-51.124v-332.231h51.124v141.843z" />
<glyph unicode="&#xe94e;" d="M29.341 292.438l488.214 278.657 496.722-280.914-505.403-284.039z" />
<glyph unicode="&#xe94f;" d="M855.938 657.557l116.498-360.605-460.435-277.442-477.797 278.831 183.862 481.27 144.103-72.225 160.944 160.944 266.33-249.663z" />
<glyph unicode="&#xe950;" d="M1022.090 280.806l-149.659 421.024-72.052-38.89-293.936 249.837-144.277-166.5-149.832 83.163-210.078-547.592-2.257-1.042 514.431-296.366 509.569 295.325-1.91 1.042zM510.785 69.686l-436.997 249.489 169.104 407.655 116.498-66.496 149.832 160.944 288.38-244.107 44.446 27.779 101.914-280.567-433.177-254.698zM563.565 588.804l-51.044 50.87-135.596-135.596 51.044-50.87 50.697 50.697v-262.511h72.225v256.955l50.697-50.697 51.044 50.87-89.587 89.587 0.521 0.694z" />
<glyph unicode="&#xe951;" d="M131.072 707.072c0-8.483-5.96-15.36-13.312-15.36s-13.312 6.877-13.312 15.36c0 8.483 5.96 15.36 13.312 15.36s13.312-6.877 13.312-15.36z" />
<glyph unicode="&#xe952;" d="M993.28 446.976c0-266.37-215.934-482.304-482.304-482.304s-482.304 215.934-482.304 482.304c0 266.37 215.934 482.304 482.304 482.304s482.304-215.934 482.304-482.304z" />
<glyph unicode="&#xe953;" d="M512.614 289.69c-22.733 0-41.37-18.637-41.37-41.37s18.637-41.37 41.37-41.37 41.37 18.637 41.37 41.37-18.637 41.37-41.37 41.37zM613.581 678.4c-13.517 12.083-29.286 21.504-47.309 28.467-18.227 6.758-37.274 10.035-57.958 10.035-20.89 0-40.346-3.482-58.573-10.445s-33.997-16.794-47.309-29.491c-13.517-12.698-23.757-27.853-31.334-45.466s-11.264-37.069-11.264-57.958h76.186c0 20.275 6.144 38.093 18.637 53.043s30.31 22.528 53.658 22.528c21.914 0 39.526-7.168 53.043-21.504s20.070-32.154 20.070-53.043c0-10.445-2.048-20.275-6.349-29.491s-9.83-18.227-16.794-27.238l-58.163-78.438c-9.011-11.878-15.36-23.347-19.456-34.406-4.096-10.854-5.939-24.166-5.939-39.526v-26.010h76.186v22.528c0 5.939 1.229 12.902 3.686 20.48 2.458 7.782 5.734 14.336 9.626 19.866l57.549 80.486c10.035 13.926 18.432 28.262 25.395 43.008s10.445 31.13 10.445 48.947c0 21.914-4.096 41.574-11.878 59.187-8.192 17.408-18.842 32.358-32.154 44.442zM512 960c-282.419 0-512-229.581-512-512 0-282.214 229.581-512 512-512 282.214 0 512 229.786 512 512 0 282.419-229.786 512-512 512zM512 8.294c-242.483 0-439.706 197.222-439.706 439.706s197.222 439.706 439.706 439.706 439.706-197.222 439.706-439.706-197.222-439.706-439.706-439.706z" />
<glyph unicode="&#xe954;" d="M843.17 82.29c0-12.343-9.097-22.349-20.317-22.349s-20.317 10.006-20.317 22.349c0 12.343 9.097 22.349 20.317 22.349s20.317-10.006 20.317-22.349z" />
<glyph unicode="&#xe955;" d="M1003.676 449.016c0-264.252-214.218-478.47-478.47-478.47s-478.47 214.218-478.47 478.47c0 264.252 214.218 478.47 478.47 478.47s478.47-214.218 478.47-478.47z" />
<glyph unicode="&#xe956;" d="M1010.787 565.84c-42.463 189.56-191.388 338.485-380.948 380.948-373.43 83.707-700.334-243.197-616.627-616.627 42.463-189.56 191.388-338.485 380.948-380.948 373.43-83.707 700.334 243.197 616.627 616.627zM512.61 8.336c-242.791-0.203-440.477 197.483-440.274 440.274 0.203 241.572 197.483 438.852 439.055 439.055 242.791 0.203 440.477-197.483 440.274-440.274-0.203-241.572-197.483-438.852-439.055-439.055zM297.45 541.662h-0.203v-35.555h80.253v33.93h89.802v-338.078h89.396v338.078h82.285v-33.93h82.894v123.325h-424.426v-87.77z" />
<glyph unicode="&#xe957;" glyph-name="hover" d="M33.342 275.422l92.715-59.811 182.003 71.122 2.057-1.542-152.526-239.929 150.127-95.457 150.127 236.159 2.057-1.542 12.339-189.201 92.887-59.811-20.051 564.005-511.734-223.991zM974.377 642.171c-26.735 108.139-94.086 199.484-189.373 257.067-95.457 57.583-207.539 74.549-315.678 47.814s-199.484-94.086-257.067-189.373c-57.583-95.457-74.549-207.539-47.814-315.678l86.374 21.422c-21.079 85.175-7.712 173.434 37.703 248.498s117.222 128.019 202.226 149.099c85.175 21.079 173.434 7.712 248.498-37.703 75.064-45.244 128.019-117.222 149.099-202.226 43.53-175.662-64.267-354.067-239.929-397.597l21.422-86.374c108.139 26.735 199.484 94.086 257.067 189.373 57.24 95.286 74.207 207.539 47.472 315.678zM796.83 592.643c-29.306 126.305-155.954 205.139-282.431 175.662-126.305-29.306-205.139-156.125-175.662-282.431l86.546 20.223c-18.337 78.491 30.677 157.325 109.339 175.662 78.491 18.337 157.325-30.848 175.662-109.339s-30.848-157.325-109.339-175.491l20.223-86.546c126.134 29.306 204.968 155.954 175.662 282.259z" />
<glyph unicode="&#xe958;" d="M262.509 794.657l-15.702 117.163-210.973-234.46z" />
<glyph unicode="&#xe959;" d="M489.185 958.792l-226.676-164.135-15.702 117.163z" />
<glyph unicode="&#xe95a;" d="M629.834 794.657l-140.649 164.135 289.216-70.459z" />
<glyph unicode="&#xe95b;" d="M262.509 794.657h367.325l-140.649 164.135z" />
<glyph unicode="&#xe95c;" d="M106.158 528.927l-70.324 148.433 226.676 117.297z" />
<glyph unicode="&#xe95d;" d="M4.563 341.305l101.595 187.621-70.324 148.433z" />
<glyph unicode="&#xe95e;" d="M199.969 216.224l-93.811 312.702-101.595-187.621z" />
<glyph unicode="&#xe95f;" d="M629.834 794.657l-242.244-289.216-125.081 289.216z" />
<glyph unicode="&#xe960;" d="M926.834 622.603l-297 172.053 148.567 93.677z" />
<glyph unicode="&#xe961;" d="M965.888 693.062l-39.054-70.459-148.433 265.73z" />
<glyph unicode="&#xe962;" d="M731.429 481.954l195.405 140.649-297 172.053z" />
<glyph unicode="&#xe963;" d="M387.59 505.441l343.838-23.486-101.595 312.702z" />
<glyph unicode="&#xe964;" d="M199.969 216.224l187.621 289.216-281.432 23.486z" />
<glyph unicode="&#xe965;" d="M575.077 177.17l-187.487 328.27-187.621-289.216z" />
<glyph unicode="&#xe966;" d="M731.429 481.954l-156.351-304.784-187.487 328.27z" />
<glyph unicode="&#xe967;" d="M1020.645 411.63l-93.811 210.973 39.054 70.459z" />
<glyph unicode="&#xe968;" d="M895.564 263.063l125.081 148.567-93.811 210.973z" />
<glyph unicode="&#xe969;" d="M731.429 481.954l164.135-218.892 31.27 359.541z" />
<glyph unicode="&#xe96a;" d="M575.077 177.17l320.486 85.893-164.135 218.892z" />
<glyph unicode="&#xe96b;" d="M919.050 138.116l-23.486 124.947 125.081 148.567z" />
<glyph unicode="&#xe96c;" d="M700.158-2.667l195.405 265.73 23.486-124.947z" />
<glyph unicode="&#xe96d;" d="M575.077 177.17l125.081-179.837 195.405 265.73z" />
<glyph unicode="&#xe96e;" d="M395.374-2.667l179.703 179.837 125.081-179.837z" />
<glyph unicode="&#xe96f;" d="M457.915-65.208l242.244 62.54h-304.784z" />
<glyph unicode="&#xe970;" d="M168.698 52.089l226.676-54.756 62.54-62.54z" />
<glyph unicode="&#xe971;" d="M199.969 216.224l195.405-218.892 179.703 179.837z" />
<glyph unicode="&#xe972;" d="M4.563 341.305l164.135-289.216 31.27 164.135z" />
<glyph unicode="&#xe973;" d="M395.374-2.667l-226.676 54.756 31.27 164.135z" />
<glyph unicode="&#xe974;" d="M387.59 505.441l-281.432 23.486 156.351 265.73z" />
<glyph unicode="&#xe975;" d="M34.639 248.094l356.728 194.736 434.278-253.329 156.823 112.016 5.17-311.922-949.552 8.617z" />
<glyph unicode="&#xe976;" d="M26.367 930.186h977.987v-944.727h-977.987v944.727z" />
<glyph unicode="&#xe977;" d="M6.032 949.488v-991.774h1024v986.259c0 0-1019.347 5.515-1024 5.515zM956.963 33.196h-878.034v197.665l295.55 168.886 436.518-248.676 145.966 82.72v-200.595zM956.963 321.508l-145.966-87.545-436.518 254.191-295.55-174.056v559.908h878.034v-552.498zM739.134 620.677c39.636 0 71.863 32.226 71.863 71.863s-32.226 71.863-71.863 71.863-71.863-32.226-71.863-71.863 32.226-71.863 71.863-71.863z" />
<glyph unicode="&#xe978;" d="M388.051 931.85h40.321v-35.841h-40.321v35.841z" />
<glyph unicode="&#xe979;" d="M989.13 358.996l-39.126 201.455-106.328 22.4 67.201 139.928-151.128 111.853-106.328-72.727-50.326 162.329-201.455-5.525-22.4-156.654-134.253 78.402-139.928-128.728 89.602-117.528-168.003-67.351 27.926-167.854 117.528-61.527-61.527-128.728 134.253-123.053 134.253 56.001 16.726-134.253h223.855l11.2 162.329 145.454-89.602 117.528 162.329-61.527 111.853 156.803 44.652zM516.331 291.943c-94.231 0-170.691 76.46-170.691 170.691s76.46 170.691 170.691 170.691 170.691-76.46 170.691-170.691c0-94.381-76.46-170.691-170.691-170.691z" />
<glyph unicode="&#xe97a;" d="M1014.069 313.299v268.806l-128.579 12.395c-1.643 4.181-3.285 8.214-5.077 12.246l82.135 99.757-190.105 190.255-99.757-82.135c-3.285 1.493-6.571 2.837-9.856 4.181v140.974h-298.523v-140.974c-3.285-1.344-6.571-2.688-9.856-4.181l-99.757 82.135-190.255-190.105 82.135-99.757c-1.792-4.032-3.435-8.214-5.077-12.246l-128.579-12.395v-268.806l128.579-12.395c1.643-4.181 3.285-8.214 5.077-12.246l-82.135-99.757 190.105-190.105 99.757 82.135c3.285-1.493 6.571-2.837 9.856-4.181v-141.123h298.523v140.974c3.285 1.344 6.571 2.688 9.856 4.181l99.757-82.135 190.105 190.105-82.135 99.757c1.792 4.032 3.435 8.214 5.077 12.246l128.728 12.395zM864.285 193.68l-96.77-96.77-84.823 69.889-21.206-10.752c-14.934-7.616-30.614-14.038-46.444-19.264l-25.089-8.214v-120.066h-152.92v120.066l-25.089 8.214c-15.83 5.227-31.51 11.648-46.444 19.264l-21.206 10.752-84.823-69.889-96.77 96.77 69.889 84.823-10.752 21.206c-7.616 14.934-14.038 30.614-19.264 46.444l-7.317 22.55-109.314 10.603v136.792l109.314 10.603 7.317 22.55c5.227 15.83 11.648 31.51 19.264 46.444l10.752 21.206-69.889 84.972 96.77 96.77 84.823-69.889 21.206 10.752c14.934 7.616 30.614 14.038 46.444 19.264l25.089 8.214v120.066h153.070v-120.066l25.089-8.214c15.83-5.227 31.51-11.648 46.444-19.264l21.206-10.752 84.823 69.889 96.77-96.77-69.889-84.823 10.752-21.206c7.616-14.934 14.038-30.614 19.264-46.444l7.317-22.55 109.314-10.603v-136.792l-109.314-10.603-7.317-22.55c-5.227-15.83-11.648-31.51-19.264-46.444l-10.752-21.206 69.74-84.972zM513.493 649.305c-111.106 0-201.455-90.349-201.455-201.455s90.349-201.604 201.455-201.604 201.604 90.349 201.604 201.604c0 111.106-90.498 201.455-201.604 201.455zM513.493 318.973c-71.084 0-128.728 57.793-128.728 128.728 0 71.084 57.793 128.728 128.728 128.728 71.084 0 128.728-57.793 128.728-128.728s-57.644-128.728-128.728-128.728z" />
<glyph unicode="&#xe97b;" glyph-name="left" d="M1022.706 488.718h-766.749l125.779 74.19v105.592l-383.029-220.501 383.029-220.501v100.243l-131.3 74.018h772.27z" />
<glyph unicode="&#xe97c;" d="M504.137 530.479c100.827 0 182.607-81.78 182.607-182.607s-81.78-95.235-182.607-95.235-182.607-5.592-182.607 95.235 81.78 182.607 182.607 182.607z" />
<glyph unicode="&#xe97d;" d="M731.478 450.796c0-119.671-97.012-216.682-216.682-216.682s-216.682 97.012-216.682 216.682c0 119.671 97.012 216.682 216.682 216.682s216.682-97.012 216.682-216.682z" />
<glyph unicode="&#xe97e;" d="M316.811 703.476l-135.252 135.252-51.899-51.724 135.252-135.252 51.899 51.724zM548.696 960h-73.218v-191.345h73.218v191.345zM832.655 487.317v-73.218h191.345v73.218h-191.345zM196.937 487.317h-196.936v-73.218h196.936v73.218zM888.748 787.003l-51.724 51.724-135.252-135.252 51.724-51.724 135.252 135.252zM112.885 114.763l51.724-51.724 139.271 139.271-51.724 51.724-139.271-139.271zM714.528 202.135l139.271-139.271 51.724 51.724-139.271 139.271-51.724-51.724zM748.254 493.433c-12.756 63.956-49.802 119.175-103.973 155.522-54.345 36.172-119.525 49.103-183.481 36.347s-119.175-49.802-155.522-103.973c-36.172-54.345-49.103-119.525-36.347-183.481s49.802-119.175 103.973-155.522c40.715-27.085 87.372-41.065 135.077-41.065 16.076 0 32.328 1.573 48.404 4.893 132.106 26.212 218.255 155.173 191.869 287.279zM542.056 277.625c-44.909-8.912-90.517 0-128.612 25.513-38.094 25.338-63.956 64.131-72.868 108.865-18.523 92.614 41.764 182.957 134.378 201.48 11.358 2.272 22.717 3.32 33.9 3.32 33.376 0 66.228-9.786 94.711-28.833 38.094-25.338 63.956-64.131 72.868-108.865 18.523-92.44-41.764-182.957-134.378-201.48zM475.479-64h73.218v196.936h-73.218v-196.936z" />
<glyph unicode="&#xe97f;" d="M973.93 353.965l47.933 275.082-418.423 6.411 86.86 200.892-22.44 78.311-141.205 80.601-275.998-358.736h-194.939v-665.264h851.349l66.099 379.191h0.611v3.511zM142.273 550.125h66.557v-492.308h-66.557v492.308zM866.92 244.055h-145.784v-86.555h130.671l-17.403-99.835h-539.172v494.903l254.168 330.495 45.185-25.798 4.274-14.807-125.939-291.416 446.512-6.869-18.776-107.163h-179.673v-86.555h164.408l-18.471-106.4z" />
<glyph unicode="&#xe980;" d="M90.676 594.089l177.078-1.527 277.83 332.785 129.756-91.592-111.437-253.405 419.797 6.106-125.176-577.031-758.688-16.792z" />
<glyph unicode="&#xe981;" d="M92.203 610.881h170.972v-590.769h-170.972v590.769z" />
<glyph unicode="&#xe982;" glyph-name="link" d="M751.128 419.394l-98.323 56.185-81.708-47.791-44.537 77.254 85.134 49.847v112.712l-137.721 232.961-98.152 56.185-240.327-140.633v-107.744l137.55-237.928 98.495-56.356 83.763 48.99 44.537-77.254-87.36-51.046v-107.744l137.55-237.928 98.495-56.356 240.327 140.976v112.712l-137.721 232.961zM610.495 49.911l-115.281 199.387v38.199l45.907 26.893 15.417-26.722 71.601 41.282-15.588 27.065 40.939 23.981 37.856-21.583 115.11-194.762v-42.824l-158.276-92.67-37.685 21.754zM333.34 531.078l-115.281 199.387v38.199l158.276 92.67 37.856-21.583 114.939-194.762v-42.824l-43.851-25.694-17.472 30.319-71.601-41.282 17.815-30.833-42.995-25.009-37.685 21.412z" />
<glyph unicode="&#xe983;" glyph-name="linkedin" d="M764.042 639.34c-116.124 0-168.907-63.341-197.938-108.206v92.371h-219.051c2.639-60.701 0-659.794 0-659.794h221.69v369.485c0 18.475 0 39.587 7.917 52.783 15.835 39.587 52.783 79.175 113.485 79.175 79.175 0 110.845-60.701 110.845-150.433v-353.65h216.413v380.041c0 203.216-108.206 298.227-253.361 298.227zM566.103 525.856v0c0 2.639 0 2.639 0 0v0zM6.599 623.505h219.051v-659.794h-219.051v659.794zM117.444 940.206c-73.897 0-124.041-50.144-124.041-113.485s47.506-113.485 121.402-113.485h2.639c76.537 0 124.041 50.144 124.041 113.485-2.639 65.979-47.506 113.485-124.041 113.485z" />
<glyph unicode="&#xe984;" d="M270.801 471.145c0-15.475-15.817-28.018-35.327-28.018s-35.327 12.543-35.327 28.018c0 15.475 15.817 28.018 35.327 28.018s35.327-12.543 35.327-28.018z" />
<glyph unicode="&#xe985;" d="M210.623 481.134h623.22v-600.318h-623.22v600.318z" />
<glyph unicode="&#xe986;" d="M510.782 876.312c-185.894 0-337.435-151.541-337.435-337.435v-686.565h674.871v686.565c0 186.138-151.541 337.435-337.435 337.435zM260.081 545.211c0 138.385 112.56 245.828 250.701 245.828s250.701-107.687 250.701-245.828v-24.364h-501.402v24.364zM761.727-67.533h-501.646v501.646h501.646v-501.646zM556.342 272.095h-91.12v-193.69h91.12v193.69z" />
<glyph unicode="&#xe987;" glyph-name="loop" d="M640.601-64.515l383.055 220.459-383.055 220.63v-100.443l131.176-74.001h-685.242v670.476h842.001v-162.94h86.879v249.819h-1015.758v-844.233h766.626l-125.682-74.173z" />
<glyph unicode="&#xe988;" glyph-name="menu" d="M0 128h1024v-128.001h-1024v128.001zM0 512.001h1024v-128.001h-1024v128.001zM0 896.001h1024v-128.001h-1024v128.001z" />
<glyph unicode="&#xe989;" d="M103.424 284.501l283.648 163.499 528.725-307.712-259.584-153.771z" />
<glyph unicode="&#xe98a;" d="M93.696 765.269l16.725-486.741 516.949-311.296 322.048 177.835-43.179 269.312-298.155 144.213 2.389 244.565-223.403 130.389z" />
<glyph unicode="&#xe98b;" d="M639.317 594.603v221.184l-254.635 144.213-317.44-182.613v-514.389l572.075-326.997 317.269 182.613v293.376l-317.269 182.613zM868.011 390.485l-235.349-136.875-255.829 147.285 236.203 134.656 254.976-145.067zM576.853 777.387v-188.075l-223.573-128.683v184.491l-2.048 1.195 225.109 131.243 0.512-0.171zM515.584 812.544l-191.147-109.739-129.195 74.411 189.269 110.763 131.072-75.435zM129.877 738.816l1.707 1.024 159.403-90.112v-273.749l314.368-183.808-0.171-164.181-475.307 273.408v437.419zM669.013 25.088l-0.853 177.152 221.355 129.024v-178.859l-220.501-127.317z" />
<glyph unicode="&#xe98c;" glyph-name="Caption-top" d="M242.527 677.053h188.632v-619.791h-188.632v619.791zM592.844 677.053h188.632v-431.159h-188.632v431.159zM997.053 838.738h-970.105c-14.883 0-26.947-12.067-26.947-26.947s12.064-26.947 26.947-26.947h970.105c14.883 0 26.947 12.064 26.947 26.947s-12.064 26.947-26.947 26.947z" />
<glyph unicode="&#xe98d;" glyph-name="none" d="M221.184 756.224c0-11.877-10.544-21.504-23.552-21.504s-23.552 9.627-23.552 21.504c0 11.877 10.544 21.504 23.552 21.504s23.552-9.627 23.552-21.504zM509.952 960c-281.6 0-512-230.4-512-512s230.4-512 512-512 512 230.4 512 512-230.4 512-512 512zM937.984 448c0-96.256-42.394-197.427-101.171-272.384l-599.245 599.245c74.957 58.778 176.128 101.171 272.384 101.171 235.52 0 428.032-192.512 428.032-428.032zM81.92 448c0 101.581 32.154 192.512 90.931 262.144l599.245-599.245c-69.632-58.778-160.563-90.931-262.144-90.931-235.52 0-428.032 192.512-428.032 428.032z" />
<glyph unicode="&#xe98e;" glyph-name="once" d="M640.579 227.407l382.991 220.593-382.991 220.593v-100.426l131.154-73.989h-772.163v-86.864h766.67l-125.661-74.161z" />
<glyph unicode="&#xe98f;" d="M218.789 274.551c-71.582-71.582-71.582-187.731 0-259.485 71.582-71.582 187.731-71.582 259.485 0 71.582 71.582 71.582 187.731 0 259.485-71.754 71.582-187.903 71.582-259.485 0zM386.215 626.611c41.814 41.814 41.814 109.782 0 151.596s-109.782 41.814-151.596 0-41.814-109.782 0-151.596c41.814-41.814 109.61-41.814 151.596 0zM779.572 795.414c39.405 0 71.41 32.005 71.41 71.41s-32.005 71.41-71.41 71.41-71.41-32.005-71.41-71.41 32.005-71.41 71.41-71.41z" />
<glyph unicode="&#xe990;" d="M220.51 277.993c-71.582-71.582-71.582-187.731 0-259.485 71.582-71.582 187.731-71.582 259.485 0 71.582 71.582 71.582 187.731 0 259.485-71.754 71.582-187.903 71.582-259.485 0zM387.936 630.052c41.814 41.814 41.814 109.782 0 151.596s-109.782 41.814-151.596 0-41.814-109.782 0-151.596c41.814-41.814 109.61-41.814 151.596 0zM621.782 627.127c-59.193 0-107.201-48.008-107.201-107.201s48.008-107.201 107.201-107.201 107.201 48.008 107.201 107.201-48.008 107.201-107.201 107.201zM786.111 327.033c-39.405 0-71.41-32.005-71.41-71.41s32.005-71.41 71.41-71.41 71.41 32.005 71.41 71.41c0 39.405-32.005 71.41-71.41 71.41zM781.293 798.855c39.405 0 71.41 32.005 71.41 71.41s-32.005 71.41-71.41 71.41-71.41-32.005-71.41-71.41 32.005-71.41 71.41-71.41z" />
<glyph unicode="&#xe991;" d="M781.809 774.765c6.023 0 12.217 0.516 18.24 1.721 24.434 4.818 45.427 18.928 59.193 39.577s18.756 45.599 13.766 70.033c-4.818 24.434-18.928 45.427-39.577 59.193s-45.599 18.756-70.033 13.766c-24.434-4.818-45.427-18.928-59.193-39.577s-18.756-45.599-13.766-70.033c8.948-44.050 47.836-74.679 91.37-74.679zM755.826 885.236c4.646 6.883 11.701 11.701 19.788 13.25 2.065 0.344 4.13 0.688 6.195 0.688 6.023 0 12.045-1.721 17.207-5.334 6.883-4.646 11.701-11.701 13.25-19.788s0-16.519-4.646-23.402-11.701-11.701-19.788-13.25c-16.863-3.441-33.382 7.571-36.651 24.434-1.549 8.087 0 16.519 4.646 23.402zM876.793 284.359c-10.152 50.417-59.193 83.111-109.61 73.131-50.417-10.152-83.111-59.193-73.131-109.61 8.776-44.223 47.836-74.851 91.37-74.851 6.023 0 12.045 0.688 18.24 1.893 50.417 9.98 83.283 59.193 73.131 109.438zM791.617 235.491c-16.863-3.269-33.382 7.571-36.651 24.434-3.441 16.863 7.571 33.382 24.434 36.651 2.065 0.344 4.13 0.688 6.195 0.688 14.626 0 27.704-10.324 30.629-25.123 3.269-16.691-7.743-33.21-24.606-36.651zM464.336 316.193c-45.943 30.629-101.178 41.641-155.381 30.801s-101.006-42.158-131.635-88.101-41.641-101.178-30.801-155.381c19.616-98.425 106.341-166.566 202.873-166.566 13.422 0 27.015 1.377 40.609 3.958 54.203 10.841 101.006 42.158 131.635 88.101s41.641 101.178 30.801 155.381c-10.841 54.375-42.158 101.006-88.101 131.807zM470.186 63.419c-21.509-32.178-54.203-54.203-92.231-61.774-78.465-15.659-155.037 35.447-170.696 113.74-7.571 38.028 0 76.572 21.509 108.922s54.203 54.203 92.231 61.774c9.636 1.893 19.272 2.925 28.736 2.925 28.392 0 56.096-8.259 80.186-24.434 32.178-21.509 54.203-54.203 61.774-92.231s0-76.572-21.509-108.922zM781.293 550.211c-17.723 88.617-104.104 146.261-192.721 128.538s-146.261-104.104-128.538-192.721c15.487-77.777 84.143-131.635 160.543-131.635 10.668 0 21.337 1.032 32.178 3.097 88.617 17.723 146.261 104.104 128.538 192.721zM640.538 418.232c-55.063-11.013-108.922 24.778-119.934 80.014-11.013 55.063 24.778 108.922 80.014 119.934 6.711 1.377 13.422 1.893 19.96 1.893 47.492 0 90.166-33.554 99.802-81.906 11.185-55.235-24.606-108.922-79.842-119.934zM235.996 592.369c22.369-14.97 48.18-22.714 74.507-22.714 8.776 0 17.723 0.86 26.671 2.581 35.275 7.055 65.732 27.359 85.692 57.3s27.015 65.904 19.96 101.178-27.532 65.732-57.472 85.692-65.904 27.015-101.178 19.96c-35.275-7.055-65.732-27.359-85.692-57.3s-27.015-65.904-19.96-101.178c7.227-35.103 27.532-65.56 57.472-85.52zM250.278 744.825c10.841 16.175 27.187 27.187 46.287 30.973 4.818 1.032 9.636 1.377 14.454 1.377 14.282 0 28.048-4.13 40.265-12.217 16.175-10.841 27.187-27.187 30.973-46.287s0-38.544-10.841-54.719-27.187-27.187-46.287-30.973-38.544 0-54.719 10.841-27.187 27.187-30.973 46.287c-3.786 19.1 0 38.544 10.841 54.719z" />
<glyph unicode="&#xe992;" d="M246.817 840.642c0-8.977-7.276-16.253-16.253-16.253s-16.253 7.276-16.253 16.253c0 8.977 7.276 16.253 16.253 16.253s16.253-7.276 16.253-16.253z" />
<glyph unicode="&#xe993;" d="M985.907 444.578c0-255.118-213.325-461.931-476.474-461.931s-476.474 206.813-476.474 461.931c0 255.118 213.325 461.931 476.474 461.931s476.474-206.813 476.474-461.931z" />
<glyph unicode="&#xe994;" d="M875.044 809.333c-198.973 200.683-523.18 202.052-724.034 2.908s-202.223-523.351-3.080-724.034 523.351-202.223 724.034-3.080 202.223 523.351 3.080 724.206zM824.916 132.689c-174.507-173.139-456.285-171.941-629.424 2.737s-171.941 456.285 2.737 629.424 456.285 171.941 629.424-2.737 171.941-456.285-2.737-629.424zM581.632 283.758h74.080v343.882h-74.080v-343.882zM380.435 283.758h74.080v343.882h-74.080v-343.882z" />
<glyph unicode="&#xe995;" d="M221.46 813.714c0-12.343-9.097-22.349-20.317-22.349s-20.317 10.006-20.317 22.349c0 12.343 9.097 22.349 20.317 22.349s20.317-10.006 20.317-22.349z" />
<glyph unicode="&#xe996;" d="M977.27 446.984c0-264.256-214.221-478.476-478.476-478.476s-478.476 214.221-478.476 478.476c0 264.256 214.221 478.476 478.476 478.476s478.476-214.221 478.476-478.476z" />
<glyph unicode="&#xe997;" d="M512 960c-282.413 0-512-229.587-512-512s229.587-512 512-512 512 229.587 512 512-229.587 512-512 512zM512 8.33c-242.387 0-439.67 197.283-439.67 439.67s197.283 439.67 439.67 439.67 439.67-197.283 439.67-439.67-197.283-439.67-439.67-439.67zM467.302 218.819h89.397v272.051h-89.397v-272.051zM512 658.692c-32.508 0-58.921-26.413-58.921-58.921s26.413-58.921 58.921-58.921 58.921 26.413 58.921 58.921-26.413 58.921-58.921 58.921z" />
<glyph unicode="&#xe998;" d="M629.471 518.708c71.412 40.425 119.584 117.049 119.584 204.941-0.141 130.148-105.499 235.647-235.647 235.647s-235.506-105.499-235.506-235.506c0-87.892 48.172-164.516 119.584-204.941-142.261-68.736-244.661-259.873-244.661-484.956 124.936-79.3 216.35-98.597 360.583-98.597 139.444 0 230.717 28.875 360.583 98.597 0 225.083-102.4 416.22-244.521 484.815zM340.3 723.79c0 95.498 77.61 173.108 173.108 173.108s173.108-77.61 173.108-173.108-77.61-173.108-173.108-173.108-173.108 77.61-173.108 173.108zM216.209 68.402c5.634 110.851 38.312 213.251 93.385 291.425 56.059 79.582 128.458 123.387 203.814 123.387s147.755-43.805 203.814-123.387c54.651-77.469 87.188-178.883 93.245-288.748-109.443-55.073-186.067-73.384-297.059-73.384-129.725 0.141-204.659 17.043-297.199 70.708z" />
<glyph unicode="&#xe999;" d="M721.871 736.044c0-109.296-88.602-197.898-197.898-197.898s-197.898 88.602-197.898 197.898c0 109.296 88.602 197.898 197.898 197.898s197.898-88.602 197.898-197.898z" />
<glyph unicode="&#xe99a;" d="M182.404 57.838c-57.468 81.131 23.522 239.872 107.048 329.596 43.524 46.763 117.612 126.345 222.547 122.542 96.484-3.38 158.882-75.215 218.322-143.67 20.424-23.522 166.629-191.842 109.865-300.017-3.24-6.057-13.381-24.086-49.298-49.298-176.911-124.091-431.432-38.312-523.973-7.043-53.242 17.888-71.412 29.297-84.512 47.89z" />
<glyph unicode="&#xe99b;" d="M695.647 399.538c0-74.66-60.525-135.184-135.184-135.184s-135.184 60.525-135.184 135.184c0 74.66 60.525 135.184 135.184 135.184s135.184-60.525 135.184-135.184z" />
<glyph unicode="&#xe99c;" d="M33.328 649.671v-534.276h962.785v534.276h-962.785z" />
<glyph unicode="&#xe99d;" d="M879.293 716.498v83.491h-295.025v-83.491h-584.268v-651.095h1024v651.095h-144.707zM69.548 140.562v500.777h879.293v-500.777h-879.293zM144.707 488.3h144.707v83.491h-144.707v-83.491zM563.523 591.176c-102.026 0-185.007-82.981-185.007-185.007s82.981-185.007 185.007-185.007 185.007 82.981 185.007 185.007-82.981 185.007-185.007 185.007zM563.523 293.431c-62.236 0-112.739 50.673-112.739 112.909s50.503 112.569 112.739 112.569c62.066 0 112.739-50.503 112.739-112.739s-50.503-112.739-112.739-112.739z" />
<glyph unicode="&#xe99e;" d="M159.017 435.768c0-21.231-18.777-38.444-41.939-38.444s-41.939 17.212-41.939 38.444c0 21.231 18.777 38.444 41.939 38.444s41.939-17.212 41.939-38.444z" />
<glyph unicode="&#xe99f;" d="M515.495 746.987l443.85-255.301-421.657-249.534-477.226 249.534 460.625 260.893z" />
<glyph unicode="&#xe9a0;" d="M1027.495 491.337l-514.446 296.366-509.554-295.492 1.573-0.874v-82.829l516.019-299.511 504.835 294.094v87.372l1.573 0.874zM516.718 702.427l369.059-212.663-362.244-214.061-372.38 214.76 365.564 211.964z" />
<glyph unicode="&#xe9a1;" d="M1001.651 450.844c0-275.14-220.498-498.184-492.495-498.184s-492.495 223.044-492.495 498.184c0 275.14 220.498 498.184 492.495 498.184s492.495-223.044 492.495-498.184z" />
<glyph unicode="&#xe9a2;" d="M426.26 935.619c-0.61-0.61 0.61-39.619 0.61-39.619l34.946 21.333-35.556 18.286z" />
<glyph unicode="&#xe9a3;" d="M512 960c-282.413 0-512-229.587-512-512s229.587-512 512-512 512 229.587 512 512-229.587 512-512 512zM512 8.33c-242.387 0-439.67 197.283-439.67 439.67s197.283 439.67 439.67 439.67 439.67-197.283 439.67-439.67-197.283-439.67-439.67-439.67zM404.114 274.692l304.965 175.34-304.965 175.34v-350.679z" />
<glyph unicode="&#xe9a4;" d="M1001.651 450.844c0-275.14-220.498-498.184-492.495-498.184s-492.495 223.044-492.495 498.184c0 275.14 220.498 498.184 492.495 498.184s492.495-223.044 492.495-498.184z" />
<glyph unicode="&#xe9a5;" d="M426.26 935.619c-0.61-0.61 0.61-39.619 0.61-39.619l34.946 21.333-35.556 18.286z" />
<glyph unicode="&#xe9a6;" d="M512 960c-282.413 0-512-229.587-512-512s229.587-512 512-512 512 229.587 512 512-229.587 512-512 512zM512 8.33c-242.387 0-439.67 197.283-439.67 439.67s197.283 439.67 439.67 439.67 439.67-197.283 439.67-439.67-197.283-439.67-439.67-439.67zM404.114 274.692l304.965 175.34-304.965 175.34v-350.679z" />
<glyph unicode="&#xe9a7;" d="M506.356 937.020c-268.901 0-486.736-217.969-486.736-486.736 0-268.901 217.969-486.736 486.736-486.736s486.736 217.835 486.736 486.736c0 268.766-217.835 486.736-486.736 486.736zM503.534 236.078c-116.779 0-211.385 99.578-211.385 222.539s94.606 222.539 211.385 222.539 211.385-99.712 211.385-222.539c0-122.961-94.606-222.539-211.385-222.539z" />
<glyph unicode="&#xe9a8;" d="M185.046 113.52c-4.569 0-8.332-3.763-8.332-8.332s3.763-8.332 8.332-8.332 8.332 3.763 8.332 8.332c0.134 4.569-3.628 8.332-8.332 8.332zM185.046 101.56c-2.016 0-3.628 1.747-3.628 3.763s1.613 3.763 3.628 3.763 3.628-1.747 3.628-3.763-1.613-3.763-3.628-3.763z" />
<glyph unicode="&#xe9a9;" d="M558.497 695.803c-63.294 12.632-127.798-0.134-181.417-35.88-53.753-35.88-90.305-90.44-102.937-153.734-26.070-130.62 58.994-258.284 189.615-284.355 15.992-3.225 31.983-4.703 47.84-4.703 47.168 0 93.396 13.841 133.577 40.718 53.753 35.88 90.305 90.44 102.937 153.734s-0.134 127.798-35.88 181.417c-35.746 53.619-90.44 90.171-153.734 102.803zM677.157 425.558c-8.869-44.346-34.536-82.646-72.164-107.641-37.627-25.13-82.78-33.999-127.126-25.13-91.515 18.276-151.181 107.641-132.905 199.29 8.869 44.346 34.536 82.646 72.164 107.641 28.086 18.814 60.472 28.489 93.665 28.489 11.154 0 22.308-1.075 33.596-3.36 91.515-18.276 151.047-107.641 132.771-199.29zM511.194 970.885c-282.339 0-512-229.661-512-512s229.661-512 512-512 512 229.661 512 512c0 282.205-229.661 512-512 512zM511.194 13.539c-245.652 0-445.346 199.693-445.346 445.211s199.693 445.346 445.346 445.346c245.518 0 445.346-199.693 445.346-445.346s-199.828-445.211-445.346-445.211z" />
<glyph unicode="&#xe9aa;" d="M40.13 673.466l935.597-271.218-664.379-387.538z" />
<glyph unicode="&#xe9ab;" d="M34.702 900.483v-243.69l276.647-647.512 692.101 392.966-11.244 304.37z" />
<glyph unicode="&#xe9ac;" d="M1.357 944.103l0.194-288.86 307.084-703.54c2.52 4.459 3.49 4.459 2.714 0.194l714.008 414.292v351.285l-78.71 17.642-945.29 208.988zM858.438 687.424l-500.562-288.86-238.261 453.452 738.823-164.592zM67.659 669.589l-3.102 149.858 235.935-468.38 3.102-225.66-235.935 544.182zM959.055 404.962l-592.26-338.49v255.709l592.26 343.53v-260.75z" />
<glyph unicode="&#xe9ad;" d="M401.408 630.272c14.336-16.384 331.776-186.368 331.776-186.368l-319.488-190.464-12.288 376.832z" />
<glyph unicode="&#xe9ae;" d="M978.944 457.216c0-260.714-209.974-472.064-468.992-472.064s-468.992 211.35-468.992 472.064c0 260.714 209.974 472.064 468.992 472.064s468.992-211.35 468.992-472.064z" />
<glyph unicode="&#xe9af;" d="M512 960c-282.419 0-512-229.581-512-512 0-282.214 229.581-512 512-512 282.214 0 512 229.786 512 512 0 282.419-229.786 512-512 512zM512 8.294c-242.483 0-439.706 197.222-439.706 439.706s197.222 439.706 439.706 439.706 439.706-197.222 439.706-439.706-197.222-439.706-439.706-439.706zM367.206 175.206l445.235 256-445.235 256v-512zM442.368 556.544l217.088-128-217.088-122.47v250.47z" />
<glyph unicode="&#xe9b0;" glyph-name="projects" d="M0-12.8h460.8v409.6h-460.8v-409.6zM71.68 320h322.56v-256h-322.56v256zM0 499.2h460.8v409.6h-460.8v-409.6zM66.56 832h322.56v-261.12h-322.56v261.12zM563.2 663.040h460.8v-71.68h-460.8v71.68zM563.2 816.64h460.8v-71.68h-460.8v71.68zM563.2 304.64h460.8v-71.68h-460.8v71.68zM563.2 151.040h460.8v-71.68h-460.8v71.68z" />
<glyph unicode="&#xe9b1;" glyph-name="publish" d="M783.689 28.772h-706.704v838.456h706.704v-107.779h77.765v185.544h-862.429v-993.986h862.429v173.655h-77.765v-95.89zM627.77 220.553l395.255 227.447-395.255 227.447v-89.654l169.952-95.89h-469.317v-77.765h461.911l-162.546-95.89v-95.695z" />
<glyph unicode="&#xe9b2;" glyph-name="right" d="M-1.294 407.282h766.749l-125.779-74.19v-105.592l383.029 220.501-383.029 220.501v-100.243l131.3-74.018h-772.27z" />
<glyph unicode="&#xe9b3;" glyph-name="rotate" d="M880.894 388.571c-0.398-98.783-39.155-191.404-109.317-260.77-144.696-143.503-379.031-142.509-522.534 2.186-69.565 70.162-107.528 162.981-107.13 261.764s39.155 191.404 109.317 260.77c62.609 62.012 145.292 99.776 232.944 106.137h37.963l-53.267-31.404v-97.193l290.584 167.354-290.385 167.354v-93.814l55.255-31.205h-51.677v-1.59c-104.547-9.143-202.932-54.658-277.665-128.596-85.267-84.472-132.571-197.367-132.969-317.416-0.596-120.050 45.714-233.342 130.385-318.609 84.87-85.665 198.36-132.77 319.404-132.77 119.453 0 231.95 46.311 316.621 130.186 85.068 84.472 132.174 197.168 132.77 317.416l-80.298 0.199z" />
<glyph unicode="&#xe9b4;" glyph-name="scroll" d="M580.915 960.256h-143.288v-71.644h143.288v71.644zM580.915 860.977h-143.288v-154.376h143.288v154.376zM580.915 661.056h-143.288v-180.475h143.288v180.475zM676.27 310.511l-93.137-126.913h-2.047v229.261h-143.459v-225.509h-2.218l-90.067 123.501-89.043 0.512 257.578-375.108 251.266 373.744-88.873 0.512z" />
<glyph unicode="&#xe9b5;" d="M779.978 540.717c0-190.726-154.613-345.339-345.339-345.339s-345.339 154.613-345.339 345.339c0 190.726 154.613 345.339 345.339 345.339s345.339-154.613 345.339-345.339z" />
<glyph unicode="&#xe9b6;" d="M746.961 324.377c22.843 33.593 40.696 71.41 52.022 112.873 55.861 203.287-64.115 414.061-267.21 469.922s-414.061-64.115-469.922-267.21 64.115-414.061 267.21-469.922c101.356-27.834 204.631-11.902 289.67 36.089l305.411-309.25 95.021 28.026 28.986 94.637-301.188 304.835zM352.288 253.927c-156.833 43.191-249.358 205.783-206.359 362.807s205.783 249.358 362.807 206.359 249.358-205.783 206.359-362.807c-43.191-156.833-205.975-249.55-362.807-206.359z" />
<glyph unicode="&#xe9b7;" d="M730.937 522.282c0-155.895-126.378-282.273-282.273-282.273s-282.273 126.378-282.273 282.273c0 155.895 126.378 282.273 282.273 282.273s282.273-126.378 282.273-282.273z" />
<glyph unicode="&#xe9b8;" d="M746.576 437.522c45.664 166.079-52.389 338.258-218.468 383.922-166.079 45.82-338.258-52.232-383.922-218.312s52.389-338.258 218.468-383.922c82.883-22.832 167.174-9.852 236.609 29.557l249.588-252.716 77.723 22.832 23.614 77.254-246.148 249.276c18.61 27.524 33.31 58.331 42.536 92.11zM677.923 456.445c-35.186-128.235-168.269-203.768-296.347-168.582s-203.924 168.269-168.738 296.347 168.269 203.768 296.347 168.582 203.924-168.112 168.738-296.347zM977.242 775.155l-31.746 57.549-165.141-91.172 31.746-57.549 165.141 91.172zM775.976 921.843l-55.203 35.655-68.027-104.933 55.203-35.655 68.027 104.933zM223.628-48.205l63.179-18.297 52.232 181.405-63.179 18.297-52.232-181.405zM831.961 526.505l142.466-0.626 0.313 65.838-142.466 0.626-0.313-65.838zM49.261 129.916l46.29-46.759 101.18 100.242-46.29 46.759-101.18-100.242z" />
<glyph unicode="&#xe9b9;" d="M110.129 677.917l811.471-467.562-409.6-218.324-415.396 218.324z" />
<glyph unicode="&#xe9ba;" d="M115.732 706.318l392.404 224.893 419.646-245.373-5.603-472.006-414.043-234.747-430.659 229.724z" />
<glyph unicode="&#xe9bb;" d="M955.025 701.681l-22.605-11.786 20.673 11.786-442.638 258.318-442.638-258.318v-512l442.638-253.681 442.638 253.681-6.569 5.023 8.501-5.023v512zM891.266 666.131v-436.262l-66.657-40.187-313.962-176.978-314.348 176.978-66.657 40.187v436.262l66.657 35.55c4.83 0 314.155 181.808 314.155 181.808l314.155-181.808 66.657-35.55z" />
<glyph unicode="&#xe9bc;" d="M380.619 337.872c0-43.749-37.195-79.215-83.079-79.215s-83.079 35.466-83.079 79.215c0 43.749 37.195 79.215 83.079 79.215s83.079-35.466 83.079-79.215z" />
<glyph unicode="&#xe9bd;" d="M115.732 706.318l392.404 224.893 419.646-245.373-5.603-472.006-414.043-234.747-430.659 229.724z" />
<glyph unicode="&#xe9be;" d="M955.025 189.682v512l-22.605-11.786 20.673 11.786-442.638 258.318-442.638-258.318v-512l442.638-253.681 442.638 253.681-6.569 5.023 8.501-5.023zM510.454 883.489l314.155-181.808 66.657-35.55v-436.262l-1.739-0.966-759.305 437.422 66.077 35.357c4.83 0 314.155 181.808 314.155 181.808z" />
<glyph unicode="&#xe9bf;" glyph-name="shortcuts" d="M951.69 273.529c-66.939 40.983-148.124 45.667-233.994 42.935v263.658c12.685-0.39 25.175-0.781 37.665-0.781 71.818 0 139.342 8.587 196.328 43.52 37.080 22.638 61.67 59.133 69.281 102.848 8.587 48.985-5.66 102.262-38.251 142.855-60.889 75.916-172.129 88.016-248.045 27.127-71.037-56.986-87.431-177.788-90.943-244.142h-264.829c-4.098 67.134-21.467 183.448-90.748 239.068-36.69 29.469-82.747 42.935-129.585 37.861s-88.797-28.103-118.461-64.987c-32.396-40.398-46.643-93.871-38.251-142.66 7.611-43.715 32.201-80.21 69.281-102.848 56.986-34.933 124.51-43.52 196.328-43.52 11.709 0 23.614 0.195 35.714 0.585v-263.658c-85.089 2.732-165.689-2.342-232.042-42.935-37.080-22.638-61.67-59.133-69.281-102.848-8.587-48.985 5.855-102.262 38.251-142.66 29.469-36.69 71.623-59.718 118.461-64.987 6.44-0.781 13.076-0.976 19.516-0.976 40.007 0 78.453 13.466 110.069 38.836 70.062 56.205 87.040 174.666 90.943 241.41h265.219c4.489-67.524 22.248-181.496 90.553-236.336 32.591-26.151 71.428-38.836 110.264-38.836 51.717 0 102.848 22.638 137.781 65.963 32.201 40.202 46.447 93.676 38.056 142.66-7.611 43.715-32.201 80.21-69.281 102.848zM781.512 837.144c43.715 34.933 107.727 28.103 142.66-15.613 19.125-23.809 27.712-54.839 22.833-82.942-2.732-15.613-10.929-37.275-34.543-51.717-50.546-31.030-119.436-34.348-193.596-31.811 4.879 73.965 24.785 151.832 62.646 182.082zM241.317 53.977c-43.715-34.933-107.727-28.103-142.66 15.613-19.125 23.809-27.712 54.839-22.833 82.942 2.732 15.613 10.929 37.275 34.543 51.717 42.154 25.761 97.188 32.591 157.492 32.591 11.905 0 24.004-0.195 36.104-0.585-4.879-73.965-24.785-151.832-62.646-182.277zM303.182 651.159v-1.756c-73.965-2.147-142.66 1.561-192.816 32.201-23.614 14.442-31.811 36.104-34.543 51.717-4.879 28.103 3.708 59.133 22.833 82.942 16.979 21.077 41.178 34.348 68.11 37.275 3.708 0.39 7.416 0.585 11.319 0.585 23.029 0 45.081-7.806 63.426-22.443 37.665-30.249 57.571-107.141 62.646-180.521h-0.976zM642.755 312.756v-0.781h-264.633v264.633h264.633v-263.853zM924.172 74.664c-35.128-43.715-98.945-50.546-142.66-15.613-37.861 30.445-57.767 108.312-62.646 182.277 74.16 2.537 143.246-0.976 193.596-31.811 23.614-14.442 31.811-36.104 34.543-51.717 4.879-28.103-3.513-59.133-22.833-83.137z" />
<glyph unicode="&#xe9c0;" d="M608.458 702.924c0-51.37-41.258-93.013-92.151-93.013s-92.151 41.643-92.151 93.013c0 51.37 41.258 93.013 92.151 93.013s92.151-41.643 92.151-93.013z" />
<glyph unicode="&#xe9c1;" d="M812.569 756.664l-135.213 125.567-195.671 39.1-181.202-53.568-143.308-155.882 75.271-99.902 130.907-106.448c0 0 241.488-4.823 244.417-7.234 2.756-2.411 142.103 74.927 142.103 74.927l144.859 115.921-82.161 67.52z" />
<glyph unicode="&#xe9c2;" d="M903.342 725.66c-7.062 9.646-175.691 234.771-391.342 234.771s-384.452-225.125-391.514-234.771l-15.158-20.669 15.158-20.669c7.062-9.646 175.691-234.771 391.342-234.771s384.28 225.125 391.342 234.771l15.158 20.669-14.985 20.669zM511.828 519.137c-145.892 0-274.215 133.663-318.827 185.853 44.612 52.363 172.935 185.853 318.827 185.853s274.387-133.49 318.827-185.681c-44.439-52.363-172.762-186.025-318.827-186.025zM510.622 842.098c-75.099 0-136.074-61.147-136.074-136.074s61.147-136.074 136.074-136.074 136.074 61.147 136.074 136.074-60.975 136.074-136.074 136.074zM510.622 639.193c-36.861 0-66.831 29.971-66.831 66.831s29.971 66.831 66.831 66.831 66.831-29.971 66.831-66.831-29.971-66.831-66.831-66.831zM588.994 175.68l-2.067 0.172v221.852h-138.83v-218.235h-2.067l-87.329 119.538-85.951 0.517 249.239-363.094 243.211 361.716-86.123 0.517-90.084-122.983z" />
<glyph unicode="&#xe9c3;" d="M359.478 749.065h30.504v-27.852h-30.504v27.852z" />
<glyph unicode="&#xe9c4;" d="M136.663 597.869l425.735 248.014 6.631-797.093-433.693 274.54z" />
<glyph unicode="&#xe9c5;" d="M-1.402 290.173h66.844v328.519h-66.844v-328.519zM855.374 463.252c-5.57 173.61-138.596 292.312-144.166 297.352l-44.165-50.266c1.194-1.061 116.845-104.245 121.487-249.34 2.918-90.717-38.462-179.578-123.079-264.195l47.216-47.216c98.277 98.277 146.289 203.716 142.708 313.665zM1022.352 466.303c-7.56 233.69-186.607 393.639-194.3 400.271l-44.165-50.266c1.592-1.459 164.989-147.217 171.62-352.26 4.111-128.516-54.112-253.982-173.212-373.082l47.216-47.216c132.76 132.76 197.616 274.805 192.841 422.552zM104.435 281.95l495.63-283.16v899.615l-495.63-276.794v-339.66zM171.279 582.485l361.941 202.125v-670.699l-361.941 206.767v261.807z" />
<glyph unicode="&#xe9c6;" d="M458.524 286.493l95.369-145.478-95.369-165.683-130.526-30.173-95.369 55.228-50.244 155.715 85.401 130.391 125.407 30.173z" />
<glyph unicode="&#xe9c7;" d="M565.476 422.946l8.486-12.931-8.486-14.952-11.719-2.694-8.621 4.984-4.445 14.009 7.678 11.584 11.18 2.694z" />
<glyph unicode="&#xe9c8;" d="M893.205 70.028l-309.274 369.082v425.656c48.223-15.221 133.489-51.86 177.941-128.236 36.908-63.714 38.525-144.13 4.58-239.23l56.709-20.205c40.141 112.476 37.043 209.999-9.16 289.743-77.588 133.624-247.716 165.279-254.855 166.491l-35.426 6.331v-428.62l-303.213 362.077-46.203-38.659 349.415-417.17v-134.836c-30.981 33.271-71.392 56.036-116.786 65.195-57.113 11.45-115.304-0.135-163.662-32.463-48.493-32.328-81.36-81.629-92.809-138.608-23.707-117.864 53.072-233.033 170.936-256.606 14.413-2.829 28.826-4.31 43.239-4.31 42.566 0 84.323 12.527 120.558 36.639 48.493 32.328 81.36 81.629 92.809 138.608 2.694 13.201 4.041 26.536 4.176 39.872h1.751v214.579l263.072-314.124 46.203 38.794zM514.021 103.973c-7.947-40.006-31.116-74.49-65.061-97.12s-74.625-30.712-114.766-22.765c-82.572 16.568-136.453 97.12-119.884 179.826 7.947 40.006 31.116 74.49 65.061 97.12 25.459 16.972 54.554 25.728 84.458 25.728 10.103 0 20.205-0.943 30.308-2.963 82.572-16.568 136.453-97.254 119.884-179.826z" />
<glyph unicode="&#xe9c9;" d="M563.633 395.421l10.948-16.76-10.948-19.058-15.003-3.514-11.083 6.353-5.677 17.977 9.732 15.003 14.463 3.514z" />
<glyph unicode="&#xe9ca;" d="M457.799 284.993l95.426-145.571-95.426-165.711-130.433-30.142-95.426 55.282-50.146 155.573 85.288 130.568 125.567 30.142z" />
<glyph unicode="&#xe9cb;" d="M813.415 765.094c-77.584 133.812-247.62 165.44-254.919 166.657l-35.413 6.353v-657.166c-30.952 33.385-71.366 56.093-116.781 65.149-57.174 11.354-115.295-0.135-163.683-32.439-48.524-32.304-81.504-81.639-92.857-138.678-23.518-117.863 53.254-233.022 171.117-256.541 14.327-2.838 28.79-4.325 43.252-4.325 42.577 0 84.342 12.57 120.566 36.765 48.524 32.304 81.504 81.639 92.857 138.678 2.703 13.246 4.055 26.627 4.19 39.873h1.757v733.668c48.253-15.273 133.542-51.768 177.875-128.27 37.035-63.662 38.522-144.22 4.596-239.24l56.769-20.275c40.008 112.456 36.9 210.044-9.326 289.791zM513.487 102.251c-7.975-40.008-31.088-74.475-65.014-97.183s-74.746-30.682-114.754-22.707c-82.585 16.49-136.38 97.183-119.89 179.768 7.975 40.008 31.088 74.475 65.014 97.183 25.411 16.895 54.606 25.681 84.477 25.681 10.002 0 20.139-0.946 30.277-2.974 82.585-16.49 136.38-97.048 119.89-179.768z" />
<glyph unicode="&#xe9cc;" d="M61.275 420.25c0 0-50.157 200.284 445.21 200.284 500.883 0 456.241-211.488 456.241-211.488l-178.049-111.346-219.416-8.963-248.028-7.756-183.565 61.188-72.392 78.080z" />
<glyph unicode="&#xe9cd;" d="M1001.679 453.516c0-270.442-219.237-489.679-489.679-489.679s-489.679 219.237-489.679 489.679c0 270.442 219.237 489.679 489.679 489.679s489.679-219.237 489.679-489.679z" />
<glyph unicode="&#xe9ce;" d="M1023.914 456.273v0c-4.654 278.881-231.999 503.64-511.914 503.64s-507.26-224.759-511.741-503.64h-0.172c0-0.862 0-1.724 0-2.585 0-1.896 0-3.964 0-5.86 0-282.673 229.241-511.914 511.914-511.914s511.914 229.241 511.914 511.914c0 1.896 0 3.964 0 5.86 0 1.034 0 1.896 0 2.585zM512 893.21c244.581 0 442.969-197.182 445.038-441.073-14.306-70.496-222.346-142.715-445.038-142.715s-430.732 72.219-445.038 142.715c2.068 243.892 200.456 441.073 445.038 441.073zM512 2.79c-207.868 0-382.47 142.543-431.421 335.071 91.007-61.016 250.269-101.521 431.421-101.521s340.414 40.505 431.421 101.521c-48.951-192.528-223.553-335.071-431.421-335.071z" />
<glyph unicode="&#xe9cf;" d="M31.306-15.837l-15.653 9.365c0 0 9.097 16.188 27.025 16.589v-22.61l-3.211 6.020-3.478 0.669-3.345-2.81-1.605-4.549 0.268-2.676z" />
<glyph unicode="&#xe9d0;" d="M435.474 863.808l541.968-322.96c0 0-317.475-563.909-936.102-574.88v782.783l109.437-208.038 120.408-21.941 114.922 98.6 54.719 158.804-5.351 87.63z" />
<glyph unicode="&#xe9d1;" d="M964.733 585.532l-593.342 342.627c-8.295 5.485-16.857 10.435-25.687 14.85l-3.88 2.274-0.134-0.268c-17.392 8.295-35.989 14.449-55.388 18.329-62.344 12.442-125.759-0.134-178.605-35.32s-88.834-88.968-101.276-151.312c-3.077-15.653-4.549-31.172-4.683-46.424v0-708.666l0.669-71.308c13.111-0.401 26.222-0.669 39.333-0.669 217.135 0 429.32 63.816 614.079 187.033 165.494 110.24 284.697 237.471 369.919 411.527l-61.007 37.326zM76.124 762.665c8.696 43.614 33.982 81.342 70.907 105.959 27.694 18.463 59.535 28.095 92.045 28.095 10.97 0 21.941-1.070 33.045-3.345 90.172-18.061 148.77-105.959 130.709-196.131-8.696-43.614-33.982-81.342-70.907-105.959-37.059-24.75-81.476-33.447-125.090-24.75-90.038 18.061-148.637 106.092-130.709 196.131zM616.353 195.679c-164.29-109.437-351.858-168.838-544.376-174.457v540.229c31.975-31.841 73.449-55.12 120.943-64.619 15.653-3.077 31.44-4.683 47.093-4.683 46.424 0 91.911 13.646 131.512 40.002 52.846 35.186 88.834 88.968 101.276 151.312 7.358 36.657 6.020 73.716-3.478 108.768l462.098-266.77c-78.131-130.442-184.893-242.956-315.067-329.783z" />
<glyph unicode="&#xe9d2;" d="M128.13 237.044c0-15.28-13.548-27.666-30.26-27.666s-30.26 12.386-30.26 27.666c0 15.28 13.548 27.666 30.26 27.666s30.26-12.386 30.26-27.666z" />
<glyph unicode="&#xe9d3;" d="M517.706 496.762l443.007-256.259-422.084-248.478-476.38 250.899 460.99 259.372z" />
<glyph unicode="&#xe9d4;" d="M515.458 537.57l-510.271-293.955 518.225-300.525 505.429 296.894-513.383 297.586zM152.856 241.367l366.060 210.956 368.308-213.549-362.602-213.031-371.766 215.624zM1025.383 955.504h-1020.542v-72.105h1020.542v72.105zM1025.383 805.76h-1020.542v-72.105h1020.542v72.105z" />
<glyph unicode="&#xe9d5;" d="M104.357 477.179l433.389-224.847 369.024 231.713 12.015-49.775-164.774-405.069-104.7 68.656-127.013-114.998-269.474 221.415-32.611-34.328z" />
<glyph unicode="&#xe9d6;" d="M296.936 797.629l-24.201 125.125-105.73-62.477 9.612-134.737 120.319 72.088zM816.145 792.823l-4.806 115.513-86.506-14.418-115.513-81.872 100.924-81.7 105.901 62.477zM522.813 239.973l-403.867 226.049 100.924-312.555 57.671 33.641 230.855-216.437 139.371 139.543 125.125-62.648 159.281 417.255-409.36-224.847zM902.651 475.634l-384.644 221.071 4.806 4.806-399.061-225.877 413.479-216.437 365.42 216.437z" />
<glyph unicode="&#xe9d7;" d="M515.948 736.869l-441.628-256.086 1.545-0.858 129.588-364.905 62.477 33.641 254.884-216.437 124.953 144.177 129.759-72.088 182.281 474.582 1.888 1.201-445.747 256.772zM489.172 38.125l-218.84 185.027-38.447-24.029-87.708 241.496 344.995-198.758v-203.736zM202.191 479.238l316.846 183.654 319.764-184.169-313.757-185.37-322.853 185.885zM751.265 93.393l-101.096 57.671-98.521-105.901v192.579l340.017 200.818-140.401-345.167zM335.212 773.6l-4.806 144.177-62.477 38.447-124.953-76.723v-72.088l-62.477-38.447v-72.088l62.477-33.641 192.236 110.364zM210.258 845.688l62.477 38.447v-76.894l-62.477-38.447v76.894zM840.174 768.794v148.983h-124.953l-129.759-72.088v-72.088l124.953-76.894 129.759 72.088zM652.573 807.241l86.506 52.865h43.253v-48.059l-72.088-38.447-57.671 33.641z" />
<glyph unicode="&#xe9d8;" d="M15.36 857.6h35.84v-477.867h-35.84v477.867z" />
<glyph unicode="&#xe9d9;" d="M29.355 923.648h978.091v-944.811h-978.091v944.811z" />
<glyph unicode="&#xe9da;" d="M880.299 769.024l-727.893 4.267-0.512-73.387 727.893-4.267 0.512 73.387zM152.064 528.555l727.893-4.267 0.512 73.387-727.893 4.267-0.512-73.387zM152.064 362.837l363.349-2.219 0.512 73.387-363.349 2.219-0.512-73.387zM3.413 948.565v-991.915h1024v986.283c0 0-1019.392 5.632-1024 5.632zM954.539 32.256h-878.080v840.704h878.080v-840.704z" />
<glyph unicode="&#xe9db;" glyph-name="texture" d="M768.171 869.244l-252.746-148.977-259.254 148.977-252.746-148.977v-97.263l252.746 148.977 259.254-148.977 259.254 148.977 252.746-148.977v103.77l-259.254 142.47zM515.425 422.143l-259.254 149.148-252.746-149.148v-97.263l252.746 148.977 259.254-148.977 259.254 148.977 252.746-148.977v103.77l-259.254 142.641-252.746-149.148zM515.425 124.019l-259.254 148.977-252.746-148.977v-97.263l252.746 148.977 259.254-148.977 259.254 148.977 252.746-148.977v103.599l-259.254 142.641-252.746-148.977z" />
<glyph unicode="&#xe9dc;" glyph-name="twitter" d="M368.132 452.231h80.397v-76.165h-80.397v76.165zM634.71 519.934h76.165v-67.702h-76.165v67.702zM1032.462 744.197c-38.082-16.926-80.397-29.62-122.71-33.851 42.314 25.389 76.165 67.702 93.091 114.247-42.314-25.389-84.628-42.314-131.173-50.777-38.082 42.314-93.091 67.702-152.331 67.702-114.247 0-211.57-93.091-211.57-211.57 0-16.926 0-33.851 4.231-46.545-177.718 12.694-330.049 93.091-435.834 220.033-16.926-29.62-25.389-63.471-25.389-105.785 0-71.934 38.082-135.405 93.091-173.487-33.851 0-67.702 8.463-93.091 25.389 0 0 0 0 0-4.231 0-101.553 71.934-186.181 169.255-207.339-16.926-4.231-33.851-8.463-55.008-8.463-12.694 0-25.389 0-38.082 4.231 25.389-84.628 105.785-143.868 194.644-148.099-71.934-55.008-160.794-88.86-262.347-88.86-16.926 0-33.851 0-50.777 4.231 93.091-59.239 203.107-93.091 321.586-93.091 385.057 0 596.627 321.586 596.627 596.627 0 8.463 0 16.926 0 25.389 42.314 33.851 76.165 71.934 105.785 114.247z" />
<glyph unicode="&#xe9dd;" d="M160.668 399.558c-61.716 0-111.709-49.993-111.709-111.709s49.993-111.709 111.709-111.709 111.709 49.993 111.709 111.709-49.993 111.709-111.709 111.709zM419.426 148.902c-43.615-43.615-43.615-114.295 0-157.91s114.295-43.615 157.91 0 43.615 114.295 0 157.91-114.295 43.615-157.91 0zM868.848 399.558c-61.716 0-111.709-49.993-111.709-111.709s49.993-111.709 111.709-111.709 111.709 49.993 111.709 111.709-49.993 111.709-111.709 111.709z" />
<glyph unicode="&#xe9de;" d="M354.952 850.187c-88.264-88.264-88.264-231.348 0-319.612s231.348-88.264 319.612 0 88.264 231.348 0 319.612-231.348 88.264-319.612 0zM160.668 409.902c-61.716 0-111.709-49.993-111.709-111.709s49.993-111.709 111.709-111.709 111.709 49.993 111.709 111.709-49.993 111.709-111.709 111.709zM419.426 159.246c-43.615-43.615-43.615-114.295 0-157.91s114.295-43.615 157.91 0 43.615 114.295 0 157.91-114.295 43.615-157.91 0zM868.848 409.902c-61.716 0-111.709-49.993-111.709-111.709s49.993-111.709 111.709-111.709 111.709 49.993 111.709 111.709-49.993 111.709-111.709 111.709z" />
<glyph unicode="&#xe9df;" d="M740.935 379.044c-17.239-24.479-27.41-54.131-27.41-86.368 0-82.575 67.232-149.807 149.807-149.807s149.807 67.232 149.807 149.807-67.232 149.807-149.807 149.807c-24.824 0-48.269-6.206-68.956-16.894l-53.441-46.545zM473.902 231.305c-65.508-16.032-114.467-75.162-114.467-145.498 0-82.575 67.232-149.807 149.807-149.807s149.807 67.232 149.807 149.807c0 70.335-48.787 129.638-114.467 145.498h-70.68zM229.624 425.589c-20.687 10.861-44.132 16.894-68.956 16.894-82.575 0-149.807-67.232-149.807-149.807s67.232-149.807 149.807-149.807 149.807 67.232 149.807 149.807c0 32.065-10.171 61.888-27.41 86.195l-53.441 46.718zM713.869 515.060c40.512 47.235 64.991 108.434 64.991 175.321 0 148.601-121.018 269.619-269.619 269.619s-269.619-121.018-269.619-269.619c0-68.267 25.686-130.844 67.749-178.424l53.441-46.545c33.271-22.066 71.714-36.892 113.088-42.408h70.853c42.753 5.689 82.403 21.376 116.536 44.649l52.579 47.407zM509.242 889.147c109.64 0 198.766-89.126 198.766-198.766s-89.126-198.766-198.766-198.766-198.766 89.126-198.766 198.766 89.126 198.766 198.766 198.766zM160.668 213.721c-43.615 0-78.955 35.34-78.955 78.955s35.512 78.955 78.955 78.955 78.955-35.34 78.955-78.782-35.34-79.127-78.955-79.127zM588.197 85.807c0-43.615-35.34-78.955-78.955-78.955s-78.955 35.34-78.955 78.955 35.34 78.955 78.955 78.955 78.955-35.34 78.955-78.955zM863.332 213.721c-43.615 0-78.955 35.34-78.955 78.955s35.34 78.955 78.955 78.955 78.955-35.34 78.955-78.955c0-43.442-35.512-78.955-78.955-78.955z" />
<glyph unicode="&#xe9e0;" d="M312.881 475.248c0-10.418-14.546-18.864-32.488-18.864s-32.488 8.446-32.488 18.864c0 10.418 14.546 18.864 32.488 18.864s32.488-8.446 32.488-18.864z" />
<glyph unicode="&#xe9e1;" d="M234.072 498.723h547.053v-521.063h-547.053v521.063z" />
<glyph unicode="&#xe9e2;" d="M303.449 503.963v58.897c0 194.298 13.834 253.196 111.087 297.631 104.171 47.369 227.205 1.048 274.575-103.123l74.408 33.745c-31.859 70.425-89.289 123.873-161.601 150.911s-150.702 24.523-220.917-7.546c-151.33-68.748-159.086-186.124-159.086-371.829v-626.072h577.864v567.384h-496.33zM725.791 2.393h-429.888v429.888h429.888v-429.888zM550.147 293.526h-78.18v-166.002h78.18v166.002z" />
<glyph unicode="&#xe9e3;" d="M637.76 441.97c0-64.222-55.148-116.285-123.176-116.285s-123.176 52.063-123.176 116.285c0 64.222 55.148 116.285 123.176 116.285s123.176-52.063 123.176-116.285z" />
<glyph unicode="&#xe9e4;" d="M893.933 503.3l-171.93 159.699-248.764 49.787-230.331-68.221-182.439-198.288 95.785-127.139 166.417-135.408c0 0 307.166-6.202 310.783-9.131 3.618-3.101 180.716 95.268 180.716 95.268l184.334 147.467-104.571 85.965z" />
<glyph unicode="&#xe9e5;" d="M1005.911 461.437c-5.513 7.58-89.927 120.248-218.444 204.662l113.184 113.184-56.334 56.334-128.345-128.517c-61.847 30.32-130.929 50.993-204.318 50.993-272.366 0-485.47-284.598-494.428-296.829l-17.572-23.602 17.572-23.774c5.341-7.408 85.448-114.218 207.935-197.599l-99.575-99.575 56.506-56.506 113.701 113.701c64.775-33.594 137.992-56.851 215.86-56.851 272.366 0 485.47 284.598 494.428 296.829l17.572 23.774-17.744 23.774zM100.608 437.836c54.783 64.948 220.511 240.495 411.047 240.495 50.132 0 98.713-12.404 143.849-31.526l-61.502-61.502c-24.808 14.299-53.405 22.396-83.898 22.396-93.201 0-169.001-75.801-169.001-169.001 0-30.493 8.269-59.262 22.396-83.898l-80.625-80.452c-85.448 55.472-151.429 126.966-182.267 163.489zM599.171 438.697c0-49.098-39.968-89.066-89.066-89.066-11.542 0-22.396 2.24-32.56 6.202l115.424 115.424c3.962-9.992 6.202-21.017 6.202-32.56zM420.867 438.697c0 49.098 39.968 89.066 89.066 89.066 8.097 0 15.849-1.206 23.257-3.273l-109.050-109.050c-2.067 7.58-3.273 15.332-3.273 23.257zM511.655 197.168c-54.611 0-107.327 14.643-155.908 36.867l62.88 62.88c26.358-17.055 57.884-27.047 91.478-27.047 93.201 0 169.001 75.801 169.001 169.001 0 33.766-9.992 65.12-27.047 91.478l77.696 77.696c90.789-56.506 160.904-132.307 193.12-170.207-55.128-65.12-220.856-240.668-411.219-240.668z" />
<glyph unicode="&#xe9e6;" d="M196.453 787.976c0-7.87-5.468-14.25-12.215-14.25s-12.215 6.381-12.215 14.25c0 7.87 5.468 14.25 12.215 14.25s12.215-6.381 12.215-14.25z" />
<glyph unicode="&#xe9e7;" d="M976.159 457.161c0-264.781-214.646-479.427-479.427-479.427s-479.427 214.646-479.427 479.427c0 264.781 214.646 479.427 479.427 479.427s479.427-214.646 479.427-479.427z" />
<glyph unicode="&#xe9e8;" d="M510.982 961.018c-281.549 0-512-230.451-512-512s230.451-512 512-512 512 230.451 512 512-230.451 512-512 512zM510.982 4.199c-244.498 0-444.819 200.321-444.819 444.819s200.321 444.819 444.819 444.819 444.819-200.321 444.819-444.819-200.321-444.819-444.819-444.819zM471.691 385.298l-99.957 99.753-50.284-50.284 150.241-153.702 269.742 269.945-50.284 50.080-219.458-215.793z" />
<glyph unicode="&#xe9e9;" d="M409.326 624.257l251.551-148.877-217.326-152.299-30.802 1.711z" />
<glyph unicode="&#xe9ea;" d="M28.578 928.513h977.968v-944.77h-977.968v944.77z" />
<glyph unicode="&#xe9eb;" d="M5.647 952.128v-991.829h1024v986.182c0 0-1019.38 5.647-1024 5.647zM956.577 35.765h-878.032v840.727h878.032v-840.727zM364.492 682.952v-439.957l382.46 220.064-382.46 219.893zM427.807 573.433l192.171-110.374-192.171-110.545v220.92z" />
<glyph unicode="&#xe9ec;" d="M633.497 445.433c0-58.123-57.844-105.241-129.198-105.241s-129.198 47.118-129.198 105.241c0 58.123 57.844 105.241 129.198 105.241s129.198-47.118 129.198-105.241z" />
<glyph unicode="&#xe9ed;" d="M894.118 514.053l-171.979 159.829-248.813 49.797-230.503-68.107-182.417-198.503 95.829-127.144 166.503-135.358c0 0 307.337-6.16 310.93-9.241s180.706 95.144 180.706 95.144l184.299 147.508-104.556 86.075z" />
<glyph unicode="&#xe9ee;" d="M1006.203 472.299c-8.898 12.15-222.118 296.898-494.545 296.898s-485.647-284.749-494.717-296.898l-17.455-23.786 17.455-23.786c8.898-12.15 222.118-296.898 494.545-296.898s485.647 284.749 494.545 296.898l17.455 23.786-17.283 23.786zM511.658 207.914c-189.947 0-356.278 175.914-411.209 240.77 54.759 65.027 220.749 240.77 411.209 240.77 189.947 0 356.278-175.743 411.209-240.77-54.93-65.027-220.749-240.77-411.209-240.77zM510.118 618.61c-93.262 0-169.070-75.807-169.070-169.070s75.807-169.070 169.070-169.070 169.070 75.807 169.070 169.070c-0.171 93.262-75.979 169.070-169.070 169.070zM510.118 360.556c-49.112 0-89.155 40.043-89.155 89.155s40.043 89.155 89.155 89.155 89.155-40.043 89.155-89.155c-0.171-49.283-40.043-89.155-89.155-89.155z" />
<glyph unicode="&#xe9ef;" d="M112.949 244.137c0-11.978-10.875-21.688-24.29-21.688s-24.29 9.709-24.29 21.688c0 11.978 10.875 21.688 24.29 21.688s24.29-9.709 24.29-21.688z" />
<glyph unicode="&#xe9f0;" d="M517.726 496.754l443.12-256.26-422.3-248.453-476.259 250.882 460.991 259.383z" />
<glyph unicode="&#xe9f1;" d="M515.47 537.526l-510.265-293.91 518.246-300.503 505.407 296.859-513.388 297.553zM152.854 241.361l366.086 210.977 368.342-213.579-362.616-212.885-371.812 215.488zM443.12 744.686l221.734 127.523 216.355-127.523 144.179 83.28v83.107l-144.179-83.107-221.907 127.523-216.182-127.523-221.907 127.523-216.355-127.523v-83.28l216.355 127.523 221.907-127.523zM443.12 578.299l221.734 127.523 216.355-127.523 144.179 83.107v83.28l-144.179-83.28-221.907 127.696-216.182-127.696-221.907 127.696-216.355-127.696v-83.107l216.355 127.523 221.907-127.523z" />
<glyph unicode="&#xe9f2;" d="M755.148 236.114c0-23.020-27.993-41.682-62.524-41.682s-62.524 18.662-62.524 41.682c0 23.020 27.993 41.682 62.524 41.682s62.524-18.662 62.524-41.682z" />
<glyph unicode="&#xe9f3;" d="M669.699 458.073c0-175.148-141.986-317.134-317.134-317.134s-317.134 141.986-317.134 317.134c0 175.148 141.986 317.134 317.134 317.134s317.134-141.986 317.134-317.134z" />
<glyph unicode="&#xe9f4;" d="M681.682 342.404c11.984 35.43 18.583 73.118 18.583 112.543 0 193.476-157.351 350.828-350.828 350.828s-350.828-157.351-350.828-350.828 157.351-350.828 350.828-350.828c96.564 0 184.098 39.251 247.49 102.469l345.617-199.381 77.286 47.935 2.779 90.659-340.928 196.602zM349.438 184.185c-149.362 0-270.936 121.574-270.936 270.936s121.574 270.936 270.936 270.936 270.936-121.574 270.936-270.936-121.574-270.936-270.936-270.936zM386.431 596.668h-80.065v-98.475h-98.475v-80.065h98.475v-98.475h80.065v98.475h98.475v80.065h-98.475v98.475z" />
<glyph unicode="&#xe9f5;" d="M744.219 235.563c0-32.775-8.086-59.345-18.061-59.345s-18.061 26.569-18.061 59.345c0 32.775 8.086 59.345 18.061 59.345s18.061-26.569 18.061-59.345z" />
<glyph unicode="&#xe9f6;" d="M669.565 452.3c0-175.086-141.936-317.022-317.022-317.022s-317.022 141.936-317.022 317.022c0 175.086 141.936 317.022 317.022 317.022s317.022-141.936 317.022-317.022z" />
<glyph unicode="&#xe9f7;" d="M681.606 342.899c12.041 35.263 18.578 73.106 18.578 112.497 0 193.516-157.393 350.737-350.737 350.737s-350.909-157.393-350.909-350.737 157.393-350.737 350.737-350.737c96.5 0 184.055 39.219 247.528 102.348l345.748-199.364 77.406 47.82 2.58 90.823-340.932 196.612zM349.447 184.646c-149.308 0-270.75 121.442-270.75 270.75s121.442 270.75 270.75 270.75 270.922-121.442 270.922-270.75-121.614-270.75-270.922-270.75zM207.879 418.414h276.943v79.987h-276.943v-79.987z" />
<glyph unicode="&#xe9f8;" glyph-name="Caption-middle-V" d="M242.527 407.579h188.632v-269.474h-188.632v269.474zM242.527 757.896h188.632v-269.474h-188.632v269.474zM592.844 663.578h188.632v-175.157h-188.632v175.157zM592.844 407.579h188.632v-175.157h-188.632v175.157zM997.053 474.946h-970.105c-14.883 0-26.947-12.064-26.947-26.947s12.064-26.947 26.947-26.947h970.105c14.883 0 26.947 12.064 26.947 26.947s-12.064 26.947-26.947 26.947z" />
<glyph unicode="&#xe9f9;" glyph-name="Copy-paste" d="M66.065 282.839h198.194v-33.032h-198.194zM66.065 348.903h198.194v-33.032h-198.194zM66.065 414.968h198.194v-33.032h-198.194zM66.065 481.032h198.194v-33.032h-198.194zM1019.145 591.823l-115.581 115.581c-2.992 3.008-7.121 4.855-11.694 4.855h-280.774c-9.113 0-16.516-7.379-16.516-16.516v-115.613h33.032v99.097h247.742v-99.097c0-9.137 7.403-16.516 16.516-16.516h99.097v-346.839h-396.387v-33.032h412.903c9.113 0 16.516 7.379 16.516 16.516v379.871c0 4.573-1.847 8.702-4.855 11.694zM908.387 655.871l59.226-59.226h-59.226zM759.742 282.839h198.194v-33.032h-198.194zM759.742 348.903h198.194v-33.032h-198.194zM759.742 414.968h198.194v-33.032h-198.194zM759.742 481.032h198.194v-33.032h-198.194zM721.871 410.129l-132.129 132.129c-4.742 4.726-11.823 6.177-18 3.581-6.161-2.54-10.194-8.589-10.194-15.258v-66.065h-132.129v115.613c0 4.573-1.847 8.702-4.855 11.694l-115.581 115.581c-2.992 3.008-7.121 4.855-11.694 4.855h-280.774c-9.113 0-16.516-7.379-16.516-16.516v-495.484c0-9.137 7.403-16.516 16.516-16.516h396.387c9.113 0 16.516 7.379 16.516 16.516v132.129h132.129v-66.065c0-6.669 4.032-12.718 10.194-15.258 2.048-0.863 4.194-1.258 6.323-1.258 4.29 0 8.524 1.685 11.677 4.839l132.129 132.129c6.46 6.46 6.46 16.895 0 23.355zM313.806 655.871l59.226-59.226h-59.226zM594.581 306.194v42.71c0 9.137-7.403 16.516-16.516 16.516h-247.742v-33.032h66.065v-115.613h-363.355v462.452h247.742v-99.097c0-9.137 7.403-16.516 16.516-16.516h99.097v-99.097h-66.065v-33.032h247.742c9.113 0 16.516 7.379 16.516 16.516v42.71l92.258-92.258z" />
<glyph unicode="&#xe9fa;" glyph-name="Caption-down" d="M592.844 838.738h188.632v-619.791h-188.632v619.791zM242.527 650.106h188.632v-431.159h-188.632v431.159zM997.053 111.157h-970.105c-14.883 0-26.947-12.064-26.947-26.947s12.064-26.947 26.947-26.947h970.105c14.883 0 26.947 12.064 26.947 26.947s-12.064 26.947-26.947 26.947z" />
<glyph unicode="&#xe9fb;" glyph-name="Caption-right" d="M121.262 717.473h619.791v-188.632h-619.791v188.632zM309.894 367.156h431.159v-188.632h-431.159v188.632zM875.79 960c-14.883 0-26.947-12.064-26.947-26.947v-970.105c0-14.883 12.064-26.947 26.947-26.947s26.947 12.064 26.947 26.947v970.105c0 14.883-12.064 26.947-26.947 26.947z" />
<glyph unicode="&#xe9fc;" glyph-name="Caption-left" d="M282.947 717.473h619.791v-188.632h-619.791v188.632zM282.947 367.156h431.159v-188.632h-431.159v188.632zM148.21 960c-14.881 0-26.947-12.064-26.947-26.947v-970.105c0-14.883 12.064-26.947 26.947-26.947s26.947 12.064 26.947 26.947v970.105c0 14.883-12.064 26.947-26.947 26.947z" />
<glyph unicode="&#xe9fd;" glyph-name="save" d="M1013.026 711.76l-237.268 237.268c-0.002 0.002-0.006 0.006-0.010 0.008-6.814 6.812-16.354 10.964-26.48 10.964-30.036 0-683.2 0-711.804 0-20.69 0-37.464-16.774-37.464-37.464v-949.074c0-20.688 16.774-37.462 37.464-37.462 45.126 0 904.706 0 949.074 0 20.69 0 37.464 16.774 37.464 37.464v711.804c-0.002 9.936-3.948 19.464-10.976 26.492zM312.196 885.074h399.61v-221.646h-399.61v221.646zM800.9 10.926h-577.8v315.204h577.8v-315.204zM949.074 10.926h-73.246v352.666c0 20.69-16.774 37.464-37.464 37.464h-652.728c-20.69 0-37.464-16.774-37.464-37.464v-352.666h-73.246v874.148h162.342v-259.11c0-20.69 16.774-37.464 37.464-37.464h474.536c20.69 0 37.464 16.774 37.464 37.464v206.128l162.342-162.342v-658.824zM619.028 849.97c-20.69 0-37.464-16.774-37.464-37.464v-76.512c0-20.692 16.772-37.464 37.464-37.464 20.69 0 37.464 16.774 37.464 37.464v76.512c0 20.69-16.774 37.464-37.464 37.464z" />
<glyph unicode="&#xe9fe;" glyph-name="upload" d="M926 816h-398.883c-1.281 1.938-2.773 3.727-4.445 5.344l-109.18 104.766c-11.875 11.5-27.766 17.914-44.289 17.891h-275.203c-53.023 0-96-42.984-96-96v-576c0-53.023 42.977-96 96-96h288c17.672 0 32 14.328 32 32s-14.328 32-32 32h-288c-17.672 0-32 14.328-32 32v576c0 17.672 14.328 32 32 32h275.203l107.102-102.82c12.094-15.844 30.875-25.156 50.813-25.18h398.883c17.672 0 32-14.328 32-32v-448c0-17.672-14.328-32-32-32h-288c-17.672 0-32-14.328-32-32s14.328-32 32-32h288c53.023 0 96 42.977 96 96v448c0 53.016-42.984 96-96 96zM623.117 305.602c12.281-12.711 32.539-13.063 45.25-0.789 12.711 12.281 13.063 32.539 0.789 45.25-0.258 0.266-0.523 0.523-0.789 0.781l-135.742 135.781c-12.5 12.492-32.75 12.492-45.25 0l-135.773-135.781c-12.711-12.273-13.063-32.531-0.789-45.242 12.281-12.711 32.539-13.063 45.25-0.789 0.266 0.258 0.523 0.523 0.781 0.789l81.156 81.148v-402.75c0-17.672 14.328-32 32-32s32 14.328 32 32v402.75z" />
</font>
</defs>
</svg>
